💬 Мини-чат

KEYSРаздайте, пожалуйста, Тело Дженнифер / Jennifer's Body (2009) [Unrated Cut] BDRip 1080p [HEVC] 10 bit от XuMuK
KEYSРаздайте, пожалуйста, Зажигание / Combustión (2013) BDRip 1080p [HEVC] 10 bit от HANNIBAL
ADVOKAT69michael90, 👍без проблем!пожалуйста!
michael90ADVOKAT69, большое спасибо😎
ADVOKAT69michael90, раздаю
michael90Раздайте, пожалуйста, Джентльмены удачи (1971) BDRip 1080p [HEVC] 10 bit от ADVOKAT69
StarLordOldGamer, немного уменьшил список :)
OldGamerСкоро вся первая страница будет состоять из публикаций "Скоро" 😂
Adminzzzlayasss, сделайте скриншоты вкладок с хэш-суммой и трекерами и мне в приват или в ЛС
Adminzzzlayasss, в Вашем профиле я вообще не вижу, чтобы Вы это качали, так что мы даже не уверены, что Вы скачивали торрент-файл именно у нас.
OldGamerох уж в 2022 то году думать, что торренты скачиваются с сайта...
zzzlayasssСообщение удалено (удалил: zzzlayasss)
zzzlayasssOldGamer, у меня потери - 0, что тут разбирать?
OldGamerс моей стороны трассировка до пользователей саркор-телеком проходит успешно, так что разберитесь с принципом работы торрентов и ищите решение на своей стороне
OldGamerzzzlayasss, дело хозяйское
zzzlayasssOldGamer, Ни с железом, ни со скоростью интернета у меня нет проблем. Сейчас поставил на закачку релиз от ктулху, он в два раза меньше, но уже половина скачано, если докачаю быстрее 16-ти ваших мегабайт, то буду избавляться от вашего 11,66 гигового вашего, всё настроение испоганено такой долгой закачкой.
OldGamerzzzlayasss, у меня нет никаких проблем
zzzlayasssЛюди добрые, обьясните мне, я реально не понимаю, вчера поставил на закачку два фильма, РЭД и РЭД-2, второй фильм скачался буквально за каких-то пол часа, но вот с фильмом РЭД у меня какие-то немыслимые качели, или у релизера проблемы с файлом и он мне не может раздать последние 16 мегабайт, или он просто издевается, объясните мне пожалуйста, что тут реально происходит.
zzzlayasssСообщение удалено (удалил: zzzlayasss)
zzzlayasssОсталось докачать 16 мегабайт, но я уже почти сутки сижу и жду.
Отправка сообщений доступна только зарегистрированным/авторизованным пользователям.
Онлайн (за 10 мин.): 0

Знакомство с родителями: Трилогия / Meet the Parents: Trilogy (2000-2010) BDRip 1080p [HEVC] 10 bit от OldGamer (RG RIPS CLUB)

HEVC
10 bit
Обложка Знакомство с родителями: Трилогия / Meet the Parents: Trilogy (2000-2010) BDRip 1080p [HEVC] 10 bit от OldGamer (RG RIPS CLUB) Год: 2000-2010
Страна: США
Жанр: Мелодрама, Комедия

1. Знакомство с родителями / Meet the Parents (2000) BDRip 1080p [HEVC] 10 bit от OldGamer
HEVC
10 bit
Обложка Знакомство с родителями / Meet the Parents (2000) BDRip 1080p [HEVC] 10 bit от OldGamer Год: 2000
Страна: США
Студия: DreamWorks SKG, Nancy Tenenbaum Productions, Tribeca Productions, Universal Pictures
Жанр: Мелодрама, Комедия
Продолжительность: 01:47:41

Режиссер: Джей Роуч
В ролях: Бен Стиллер, Роберт Де Ниро, Тери Поло, Блайт Даннер, Николь ДеХафф, Джон Абрахамс, Оуэн Уилсон, Джеймс Ребхорн, Том МакКарти, Филлис Джордж

Описание: Обладатель замечательной фамилии, санитар Грэг Трахер, отправляется за город, чтобы познакомиться с родителями своей девушки Пэм. Здесь Грэг собирается торжественно просить руки возлюбленной. Но, к несчастью, Грэг — парень невезучий, и любые благие начинания в его исполнении превращаются в сущий кошмар. Несчастный Трахер и в самом страшном сне не предполагал, какие его ждут испытания. Дело в том, что отец Пэм, Джек Бернс, — отставной сотрудник ЦРУ, устраивает приятелям дочери свою особую и жёсткую проверку. Эта проверка включает в себя даже специальный тест на детекторе лжи!


Исходник: Blu-Ray Remux 1080p (rutracker)
Видео: 1920x1080 (16:9), 5766 Кбит/сек, HEVC (Main10@L.4.1@High)
Аудио1: AC3, 6 ch, 640 Kbps - РусскийРусский, Дублированный
Аудио2: AC3, 2 ch, 192 Kbps - РусскийРусский, Многоголосый (ОРТ)
Аудио3: AC3, 6 ch, 448 Kbps - РусскийРусский, Двухголосый (Премьер)
Аудио4: AC3, 6 ch, 640 Kbps - РусскийРусский, Авторский (Сергей Визгунов)
Аудио5: AC3, 6 ch, 640 Kbps - РусскийРусский, Авторский (Андрей Гаврилов)
Аудио6: AC3, 6 ch, 640 Kbps - РусскийРусский, Авторский (Юрий Живов)
Аудио7: AC3, 6 ch, 448 Kbps - УкраинскийУкраинский, Многоголосый (Так Треба Продакшн)
Аудио8: AC3, 6 ch, 384 Kbps - УкраинскийУкраинский, Двухголосый (Новий Канал)
Аудио9: AC3, 6 ch, 640 Kbps - EnglishEnglish, Original
Субтитры: Русские форсированные и полные (SRT), Украинские форсированные и полные (SRT), English full (SRT)

Как за пару секунд удалить ненужные аудиодорожки и субтитры (Внимание! После удаления вы не сможете поддержать раздачу)

Лог (x265 info)
x265 [info]: frame I: 647, Avg QP:17.74 kb/s: 19136.79
x265 [info]: frame P: 27990, Avg QP:19.04 kb/s: 13166.00
x265 [info]: frame B: 126240, Avg QP:21.17 kb/s: 4055.19
x265 [info]: Weighted P-Frames: Y:4.6% UV:3.1%
x265 [info]: Weighted B-Frames: Y:3.8% UV:1.9%
x265 [info]: consecutive B-frames: 0.7% 1.4% 2.7% 26.2% 12.3% 42.7% 7.1% 5.8% 0.6% 0.2% 0.1% 0.0% 0.1% 0.1%
x265 [info]: encoded 154877 frames in 116936.14s (1.32 fps), 5764.74 kb/s, Avg QP:20.77
Медиаинфо
Общее
Уникальный идентификатор : 222311822149337065736833353933495748647 (0xA73FB31431646128E356EE2EF9504827)
Полное имя : \\.\01.Знакомство.с.родителями.Meet.the.Parents.2000.BDRip-HEVC.1080p.mkv
Формат : Matroska
Версия формата : Version 4
Размер файла : 7,85 Гбайт
Продолжительность : 1 ч. 47 м.
Общий поток : 10,4 Мбит/сек
Название фильма : 01.Знакомство.с.родителями.Meet.the.Parents.2000.BDRip-HEVC.1080p
Дата кодирования : UTC 2021-05-04 13:18:07
Программа кодирования : mkvmerge v56.1.0 ('My Friend') 64-bit
Библиотека кодирования : libebml v1.4.2 + libmatroska v1.6.4

Видео
Идентификатор : 1
Формат : HEVC
Формат/Информация : High Efficiency Video Coding
Профиль формата : Main 10@L4.1@High
Идентификатор кодека : V_MPEGH/ISO/HEVC
Продолжительность : 1 ч. 47 м.
Битрейт : 5 766 Кбит/сек
Ширина : 1 920 пикселей
Высота : 1 080 пикселей
Соотношение сторон : 16:9
Режим частоты кадров : Постоянный
Частота кадров : 23,976 (24000/1001) кадра/сек
Цветовое пространство : YUV
Субдискретизация насыщенности : 4:2:0
Битовая глубина : 10 бит
Бит/(Пиксели*Кадры) : 0.116
Размер потока : 4,34 Гбайт (55%)
Заголовок : Meet the Parents / Rip by OldGamer
Библиотека кодирования : x265 3.5+1-ce882936d:[Windows][GCC 10.2.0][64 bit] 10bit
Настройки программы : cpuid=1111039 / frame-threads=3 / numa-pools=8 / wpp / no-pmode / no-pme / no-psnr / no-ssim / log-level=2 / input-csp=1 / input-res=1920x1080 / interlace=0 / total-frames=154877 / level-idc=41 / high-tier=1 / uhd-bd=0 / ref=5 / no-allow-non-conformance / no-repeat-headers / annexb / no-aud / no-hrd / info / hash=0 / no-temporal-layers / open-gop / min-keyint=23 / keyint=240 / gop-lookahead=0 / bframes=13 / b-adapt=2 / b-pyramid / bframe-bias=0 / rc-lookahead=40 / lookahead-slices=0 / scenecut=40 / hist-scenecut=0 / radl=0 / no-splice / no-intra-refresh / ctu=32 / min-cu-size=8 / rect / amp / max-tu-size=32 / tu-inter-depth=4 / tu-intra-depth=4 / limit-tu=1 / rdoq-level=2 / dynamic-rd=0.00 / no-ssim-rd / signhide / no-tskip / nr-intra=0 / nr-inter=0 / no-constrained-intra / no-strong-intra-smoothing / max-merge=5 / limit-refs=3 / no-limit-modes / me=3 / subme=7 / merange=57 / temporal-mvp / no-frame-dup / no-hme / weightp / weightb / no-analyze-src-pics / deblock=-3:-3 / no-sao / no-sao-non-deblock / rd=6 / selective-sao=0 / no-early-skip / rskip / no-fast-intra / no-tskip-fast / no-cu-lossless / b-intra / no-splitrd-skip / rdpenalty=0 / psy-rd=2.00 / psy-rdoq=1.00 / no-rd-refine / no-lossless / cbqpoffs=0 / crqpoffs=0 / rc=crf / crf=20.0 / qcomp=0.60 / qpstep=4 / stats-write=0 / stats-read=0 / vbv-maxrate=50000 / vbv-bufsize=50000 / vbv-init=0.9 / min-vbv-fullness=50.0 / max-vbv-fullness=80.0 / crf-max=0.0 / crf-min=0.0 / ipratio=1.40 / pbratio=1.30 / aq-mode=1 / aq-strength=1.00 / no-cutree / zone-count=1 / zones: / start-frame=149343 / end-frame=154877 / qp=36 / no-strict-cbr / qg-size=32 / no-rc-grain / qpmax=69 / qpmin=0 / no-const-vbv / sar=1 / overscan=0 / videoformat=5 / range=0 / colorprim=2 / transfer=2 / colormatrix=2 / chromaloc=0 / display-window=0 / cll=0,0 / min-luma=0 / max-luma=1023 / log2-max-poc-lsb=8 / vui-timing-info / vui-hrd-info / slices=1 / no-opt-qp-pps / no-opt-ref-list-length-pps / no-multi-pass-opt-rps / scenecut-bias=0.00 / hist-threshold=0.03 / no-opt-cu-delta-qp / no-aq-motion / no-hdr10 / no-hdr10-opt / no-dhdr10-opt / no-idr-recovery-sei / analysis-reuse-level=0 / analysis-save-reuse-level=0 / analysis-load-reuse-level=0 / scale-factor=0 / refine-intra=0 / refine-inter=0 / refine-mv=1 / refine-ctu-distortion=0 / no-limit-sao / ctu-info=0 / no-lowpass-dct / refine-analysis-type=0 / copy-pic=1 / max-ausize-factor=1.0 / no-dynamic-refine / no-single-sei / no-hevc-aq / no-svt / no-field / qp-adaptation-range=1.00 / scenecut-aware-qp=0conformance-window-offsets / right=0 / bottom=0 / decoder-max-rate=0 / no-vbv-live-multi-pass
Язык : English
Default : Да
Forced : Нет

Аудио #1
Идентификатор : 2
ID in the original source medium : 4355 (0x1103)
Формат : AC-3
Формат/Информация : Audio Coding 3
Коммерческое название : Dolby Digital
Идентификатор кодека : A_AC3
Продолжительность : 1 ч. 47 м.
Вид битрейта : Постоянный
Битрейт : 640 Кбит/сек
Каналы : 6 каналов
Channel layout : L R C LFE Ls Rs
Частота : 48,0 КГц
Частота кадров : 31,250 кадров/сек (1536 SPF)
Метод сжатия : С потерями
Размер потока : 493 Мбайт (6%)
Заголовок : DUB
Язык : Russian
Service kind : Complete Main
Default : Да
Forced : Нет
Носитель оригинала : Blu-ray

Аудио #2
Идентификатор : 3
ID in the original source medium : 4357 (0x1105)
Формат : AC-3
Формат/Информация : Audio Coding 3
Коммерческое название : Dolby Digital
Идентификатор кодека : A_AC3
Продолжительность : 1 ч. 47 м.
Вид битрейта : Постоянный
Битрейт : 192 Кбит/сек
Каналы : 2 канала
Channel layout : L R
Частота : 48,0 КГц
Частота кадров : 31,250 кадров/сек (1536 SPF)
Метод сжатия : С потерями
Размер потока : 148 Мбайт (2%)
Заголовок : MVO (ОРТ)
Язык : Russian
Service kind : Complete Main
Default : Нет
Forced : Нет
Носитель оригинала : Blu-ray

Аудио #3
Идентификатор : 4
ID in the original source medium : 4356 (0x1104)
Формат : AC-3
Формат/Информация : Audio Coding 3
Коммерческое название : Dolby Digital
Идентификатор кодека : A_AC3
Продолжительность : 1 ч. 47 м.
Вид битрейта : Постоянный
Битрейт : 448 Кбит/сек
Каналы : 6 каналов
Channel layout : L R C LFE Ls Rs
Частота : 48,0 КГц
Частота кадров : 31,250 кадров/сек (1536 SPF)
Метод сжатия : С потерями
Размер потока : 345 Мбайт (4%)
Заголовок : DVO (Премьер)
Язык : Russian
Service kind : Complete Main
Default : Нет
Forced : Нет
Носитель оригинала : Blu-ray

Аудио #4
Идентификатор : 5
Формат : AC-3
Формат/Информация : Audio Coding 3
Коммерческое название : Dolby Digital
Идентификатор кодека : A_AC3
Продолжительность : 1 ч. 47 м.
Вид битрейта : Постоянный
Битрейт : 640 Кбит/сек
Каналы : 6 каналов
Channel layout : L R C LFE Ls Rs
Частота : 48,0 КГц
Частота кадров : 31,250 кадров/сек (1536 SPF)
Метод сжатия : С потерями
Размер потока : 493 Мбайт (6%)
Заголовок : AVO (Сергей Визгунов)
Язык : Russian
Service kind : Complete Main
Default : Нет
Forced : Нет

Аудио #5
Идентификатор : 6
Формат : AC-3
Формат/Информация : Audio Coding 3
Коммерческое название : Dolby Digital
Идентификатор кодека : A_AC3
Продолжительность : 1 ч. 47 м.
Вид битрейта : Постоянный
Битрейт : 640 Кбит/сек
Каналы : 6 каналов
Channel layout : L R C LFE Ls Rs
Частота : 48,0 КГц
Частота кадров : 31,250 кадров/сек (1536 SPF)
Метод сжатия : С потерями
Размер потока : 493 Мбайт (6%)
Заголовок : AVO (Андрей Гаврилов)
Язык : Russian
Service kind : Complete Main
Default : Нет
Forced : Нет

Аудио #6
Идентификатор : 7
Формат : AC-3
Формат/Информация : Audio Coding 3
Коммерческое название : Dolby Digital
Идентификатор кодека : A_AC3
Продолжительность : 1 ч. 47 м.
Вид битрейта : Постоянный
Битрейт : 640 Кбит/сек
Каналы : 6 каналов
Channel layout : L R C LFE Ls Rs
Частота : 48,0 КГц
Частота кадров : 31,250 кадров/сек (1536 SPF)
Метод сжатия : С потерями
Размер потока : 493 Мбайт (6%)
Заголовок : AVO (Юрий Живов)
Язык : Russian
Service kind : Complete Main
Default : Нет
Forced : Нет

Аудио #7
Идентификатор : 8
Формат : AC-3
Формат/Информация : Audio Coding 3
Коммерческое название : Dolby Digital
Идентификатор кодека : A_AC3
Продолжительность : 1 ч. 47 м.
Вид битрейта : Постоянный
Битрейт : 448 Кбит/сек
Каналы : 6 каналов
Channel layout : L R C LFE Ls Rs
Частота : 48,0 КГц
Частота кадров : 31,250 кадров/сек (1536 SPF)
Метод сжатия : С потерями
Задержка видео : 24 мс.
Размер потока : 345 Мбайт (4%)
Заголовок : MVO (Так Треба Продакшн)
Язык : Ukrainian
Service kind : Complete Main
Default : Нет
Forced : Нет

Аудио #8
Идентификатор : 9
Формат : AC-3
Формат/Информация : Audio Coding 3
Коммерческое название : Dolby Digital
Идентификатор кодека : A_AC3
Продолжительность : 1 ч. 47 м.
Вид битрейта : Постоянный
Битрейт : 384 Кбит/сек
Каналы : 6 каналов
Channel layout : L R C LFE Ls Rs
Частота : 48,0 КГц
Частота кадров : 31,250 кадров/сек (1536 SPF)
Метод сжатия : С потерями
Задержка видео : 24 мс.
Размер потока : 296 Мбайт (4%)
Заголовок : DVO (Новий Канал)
Язык : Ukrainian
Service kind : Complete Main
Default : Нет
Forced : Нет

Аудио #9
Идентификатор : 10
Формат : AC-3
Формат/Информация : Audio Coding 3
Коммерческое название : Dolby Digital
Идентификатор кодека : A_AC3
Продолжительность : 1 ч. 47 м.
Вид битрейта : Постоянный
Битрейт : 640 Кбит/сек
Каналы : 6 каналов
Channel layout : L R C LFE Ls Rs
Частота : 48,0 КГц
Частота кадров : 31,250 кадров/сек (1536 SPF)
Метод сжатия : С потерями
Размер потока : 493 Мбайт (6%)
Язык : English
Service kind : Complete Main
Default : Нет
Forced : Нет

Текст #1
Идентификатор : 11
Формат : UTF-8
Идентификатор кодека : S_TEXT/UTF8
Идентификатор кодека/Информация : UTF-8 Plain Text
Продолжительность : 1 ч. 27 м.
Битрейт : 0 бит/сек
Count of elements : 6
Размер потока : 304 байт (0%)
Заголовок : Forced
Язык : Russian
Default : Да
Forced : Нет

Текст #2
Идентификатор : 12
Формат : UTF-8
Идентификатор кодека : S_TEXT/UTF8
Идентификатор кодека/Информация : UTF-8 Plain Text
Продолжительность : 1 ч. 46 м.
Битрейт : 121 бит/сек
Count of elements : 1523
Размер потока : 94,8 Кбайт (0%)
Язык : Russian
Default : Нет
Forced : Нет

Текст #3
Идентификатор : 13
Формат : UTF-8
Идентификатор кодека : S_TEXT/UTF8
Идентификатор кодека/Информация : UTF-8 Plain Text
Продолжительность : 1 ч. 27 м.
Битрейт : 0 бит/сек
Count of elements : 6
Размер потока : 283 байт (0%)
Заголовок : Forced
Язык : Ukrainian
Default : Нет
Forced : Нет

Текст #4
Идентификатор : 14
Формат : UTF-8
Идентификатор кодека : S_TEXT/UTF8
Идентификатор кодека/Информация : UTF-8 Plain Text
Продолжительность : 1 ч. 45 м.
Битрейт : 130 бит/сек
Count of elements : 1515
Размер потока : 101 Кбайт (0%)
Язык : Ukrainian
Default : Нет
Forced : Нет

Текст #5
Идентификатор : 15
Формат : UTF-8
Идентификатор кодека : S_TEXT/UTF8
Идентификатор кодека/Информация : UTF-8 Plain Text
Продолжительность : 1 ч. 45 м.
Битрейт : 82 бит/сек
Count of elements : 1513
Размер потока : 63,7 Кбайт (0%)
Язык : English
Default : Нет
Forced : Нет

Меню
00:00:00.000 : A Fool in Love (Main Titles)
00:04:25.181 : Proposal Problems
00:08:05.526 : Daddy & Mommy
00:17:42.478 : The Drug Storee Trip
00:23:59.062 : Dinner with the Folks
00:31:52.368 : Sleeping Arrangements
00:37:09.268 : To Tell the Truth
00:40:50.114 : Dad's Little Secret
00:44:15.444 : The Grand Inquisition
00:49:46.900 : Greg's Drug Problem
00:52:01.868 : Kevin
00:59:06.584 : Greg's Afraid of the Ball
01:03:06.324 : Wedding Smells
01:06:37.410 : Jinxed
01:11:54.351 : The Counterfeit Cat
01:28:32.640 : Good Enough for Pam
01:33:34.609 : Bomb's the Word
01:35:57.626 : No More Lies
01:38:49.632 : A Little Circle of Trust
01:43:51.016 : End Titles
01:47:39.619 : Глава 21
Загрузка...Cкриншот1 Знакомство с родителями / Meet the Parents (2000) BDRip 1080p [HEVC] 10 bit от OldGamerЗагрузка...Cкриншот2 Знакомство с родителями / Meet the Parents (2000) BDRip 1080p [HEVC] 10 bit от OldGamerЗагрузка...Cкриншот3 Знакомство с родителями / Meet the Parents (2000) BDRip 1080p [HEVC] 10 bit от OldGamerЗагрузка...Cкриншот4 Знакомство с родителями / Meet the Parents (2000) BDRip 1080p [HEVC] 10 bit от OldGamer
Сэмпл
2. Знакомство с Факерами / Meet the Fockers (2004) BDRip 1080p [HEVC] 10 bit от OldGamer
HEVC
10 bit
Обложка Знакомство с Факерами / Meet the Fockers (2004) BDRip 1080p [HEVC] 10 bit от OldGamer Год: 2004
Страна: США
Студия: DreamWorks SKG, Everyman Pictures, Tribeca Productions, Universal Pictures
Жанр: Мелодрама, Комедия
Продолжительность: 01:55:17

Режиссер: Джей Роуч
В ролях: Роберт Де Ниро, Бен Стиллер, Дастин Хоффман, Барбра Стрейзанд, Блайт Даннер, Тери Поло, Аланна Юбак, Рэй Сантьяго, Шелли Берман, Оуэн Уилсон

Описание: Дав разрешение санитару Грэгу Факеру на свадьбу с их дочерью, бывший ЦэРэУшник Джек Бёрнс и его жена отправляются в Майами к родителям жениха. У них в голове много вопросов. Что это за семейка такая - Факеры? И что это вообще за родители, которые назвали сына Гей (Гейлард) М. Факер?


Исходник: Blu-Ray Remux 1080p
Видео: 1920x1080 (16:9), 9345 Кбит/сек, HEVC (Main10@L.4.1@High)
Аудио1: AC3, 6 ch, 640 Kbps - РусскийРусский, Дублированный (Blu-ray CEE)
Аудио2: AC3, 6 ch, 448 Kbps - РусскийРусский, Многоголосый (Tycoon Studio)
Аудио3: AC3, 6 ch, 640 Kbps - РусскийРусский, Авторский (Владимир Королёв)
Аудио4: AC3, 6 ch, 448 Kbps - УкраинскийУкраинский, Многоголосый (Так Треба Продакшн)
Аудио5: AC3, 6 ch, 448 Kbps - УкраинскийУкраинский, Двухголосый (Новий Канал)
Аудио6: AC3, 6 ch, 640 Kbps - EnglishEnglish, Original
Субтитры: Русские форсированные и полные (SRT), Украинские полные (SRT), English full (SDH)

Как за пару секунд удалить ненужные аудиодорожки и субтитры (Внимание! После удаления вы не сможете поддержать раздачу)

Лог (x265 info)
x265 [info]: frame I: 694, Avg QP:18.41 kb/s: 29813.50
x265 [info]: frame P: 34061, Avg QP:19.95 kb/s: 20175.74
x265 [info]: frame B: 131090, Avg QP:21.72 kb/s: 6421.39
x265 [info]: Weighted P-Frames: Y:4.2% UV:2.7%
x265 [info]: Weighted B-Frames: Y:4.1% UV:1.4%
x265 [info]: consecutive B-frames: 0.9% 1.9% 3.6% 47.9% 14.0% 26.7% 2.4% 1.6% 0.5% 0.4% 0.1% 0.0% 0.0% 0.1%
x265 [info]: encoded 165845 frames in 165341.31s (1.00 fps), 9344.12 kb/s, Avg QP:21.34
Медиаинфо
Общее
Уникальный идентификатор : 107461141393021958884071931838696661613 (0x50D8435467F76BF0C7EDE02B0A9E226D)
Полное имя : \\.\02.Знакомство.с.Факерами.Meet.the.Fockers.2004.BDRip-HEVC.1080p.mkv
Формат : Matroska
Версия формата : Version 4
Размер файла : 10,2 Гбайт
Продолжительность : 1 ч. 55 м.
Общий поток : 12,6 Мбит/сек
Название фильма : 02.Знакомство.с.Факерами.Meet.the.Fockers.2004.BDRip-HEVC.1080p
Дата кодирования : UTC 2021-05-06 01:12:37
Программа кодирования : mkvmerge v56.1.0 ('My Friend') 64-bit
Библиотека кодирования : libebml v1.4.2 + libmatroska v1.6.4
Обложка : Yes
Attachments : cover.jpg

Видео
Идентификатор : 1
Формат : HEVC
Формат/Информация : High Efficiency Video Coding
Профиль формата : Main 10@L4.1@High
Идентификатор кодека : V_MPEGH/ISO/HEVC
Продолжительность : 1 ч. 55 м.
Битрейт : 9 345 Кбит/сек
Ширина : 1 920 пикселей
Высота : 1 080 пикселей
Соотношение сторон : 16:9
Режим частоты кадров : Постоянный
Частота кадров : 23,976 (24000/1001) кадра/сек
Цветовое пространство : YUV
Субдискретизация насыщенности : 4:2:0
Битовая глубина : 10 бит
Бит/(Пиксели*Кадры) : 0.188
Размер потока : 7,53 Гбайт (74%)
Заголовок : Meet the Fockers / Rip by OldGamer
Библиотека кодирования : x265 3.5+1-ce882936d:[Windows][GCC 10.2.0][64 bit] 10bit
Настройки программы : cpuid=1111039 / frame-threads=3 / numa-pools=8 / wpp / no-pmode / no-pme / no-psnr / no-ssim / log-level=2 / input-csp=1 / input-res=1920x1080 / interlace=0 / total-frames=165845 / level-idc=41 / high-tier=1 / uhd-bd=0 / ref=5 / no-allow-non-conformance / no-repeat-headers / annexb / no-aud / no-hrd / info / hash=0 / no-temporal-layers / open-gop / min-keyint=23 / keyint=240 / gop-lookahead=0 / bframes=13 / b-adapt=2 / b-pyramid / bframe-bias=0 / rc-lookahead=40 / lookahead-slices=0 / scenecut=40 / hist-scenecut=0 / radl=0 / no-splice / no-intra-refresh / ctu=32 / min-cu-size=8 / rect / amp / max-tu-size=32 / tu-inter-depth=4 / tu-intra-depth=4 / limit-tu=1 / rdoq-level=2 / dynamic-rd=0.00 / no-ssim-rd / signhide / no-tskip / nr-intra=0 / nr-inter=0 / no-constrained-intra / no-strong-intra-smoothing / max-merge=5 / limit-refs=3 / no-limit-modes / me=3 / subme=7 / merange=57 / temporal-mvp / no-frame-dup / no-hme / weightp / weightb / no-analyze-src-pics / deblock=-3:-3 / no-sao / no-sao-non-deblock / rd=6 / selective-sao=0 / no-early-skip / rskip / no-fast-intra / no-tskip-fast / no-cu-lossless / b-intra / no-splitrd-skip / rdpenalty=0 / psy-rd=2.00 / psy-rdoq=1.00 / no-rd-refine / no-lossless / cbqpoffs=0 / crqpoffs=0 / rc=crf / crf=18.9 / qcomp=0.60 / qpstep=4 / stats-write=0 / stats-read=0 / vbv-maxrate=50000 / vbv-bufsize=50000 / vbv-init=0.9 / min-vbv-fullness=50.0 / max-vbv-fullness=80.0 / crf-max=0.0 / crf-min=0.0 / ipratio=1.40 / pbratio=1.30 / aq-mode=1 / aq-strength=1.00 / no-cutree / zone-count=1 / zones: / start-frame=163085 / end-frame=165845 / qp=36 / no-strict-cbr / qg-size=32 / no-rc-grain / qpmax=69 / qpmin=0 / no-const-vbv / sar=1 / overscan=0 / videoformat=5 / range=0 / colorprim=2 / transfer=2 / colormatrix=2 / chromaloc=0 / display-window=0 / cll=0,0 / min-luma=0 / max-luma=1023 / log2-max-poc-lsb=8 / vui-timing-info / vui-hrd-info / slices=1 / no-opt-qp-pps / no-opt-ref-list-length-pps / no-multi-pass-opt-rps / scenecut-bias=0.00 / hist-threshold=0.03 / no-opt-cu-delta-qp / no-aq-motion / no-hdr10 / no-hdr10-opt / no-dhdr10-opt / no-idr-recovery-sei / analysis-reuse-level=0 / analysis-save-reuse-level=0 / analysis-load-reuse-level=0 / scale-factor=0 / refine-intra=0 / refine-inter=0 / refine-mv=1 / refine-ctu-distortion=0 / no-limit-sao / ctu-info=0 / no-lowpass-dct / refine-analysis-type=0 / copy-pic=1 / max-ausize-factor=1.0 / no-dynamic-refine / no-single-sei / no-hevc-aq / no-svt / no-field / qp-adaptation-range=1.00 / scenecut-aware-qp=0conformance-window-offsets / right=0 / bottom=0 / decoder-max-rate=0 / no-vbv-live-multi-pass
Язык : English
Default : Да
Forced : Нет

Аудио #1
Идентификатор : 2
Формат : AC-3
Формат/Информация : Audio Coding 3
Коммерческое название : Dolby Digital
Идентификатор кодека : A_AC3
Продолжительность : 1 ч. 55 м.
Вид битрейта : Постоянный
Битрейт : 640 Кбит/сек
Каналы : 6 каналов
Channel layout : L R C LFE Ls Rs
Частота : 48,0 КГц
Частота кадров : 31,250 кадров/сек (1536 SPF)
Метод сжатия : С потерями
Размер потока : 528 Мбайт (5%)
Заголовок : DUB (Blu-ray CEE)
Язык : Russian
Service kind : Complete Main
Default : Да
Forced : Нет

Аудио #2
Идентификатор : 3
Формат : AC-3
Формат/Информация : Audio Coding 3
Коммерческое название : Dolby Digital
Идентификатор кодека : A_AC3
Продолжительность : 1 ч. 55 м.
Вид битрейта : Постоянный
Битрейт : 448 Кбит/сек
Каналы : 6 каналов
Channel layout : L R C LFE Ls Rs
Частота : 48,0 КГц
Частота кадров : 31,250 кадров/сек (1536 SPF)
Метод сжатия : С потерями
Размер потока : 369 Мбайт (4%)
Заголовок : DVO (Tycoon Studio)
Язык : Russian
Service kind : Complete Main
Default : Нет
Forced : Нет

Аудио #3
Идентификатор : 4
Формат : AC-3
Формат/Информация : Audio Coding 3
Коммерческое название : Dolby Digital
Идентификатор кодека : A_AC3
Продолжительность : 1 ч. 55 м.
Вид битрейта : Постоянный
Битрейт : 640 Кбит/сек
Каналы : 6 каналов
Channel layout : L R C LFE Ls Rs
Частота : 48,0 КГц
Частота кадров : 31,250 кадров/сек (1536 SPF)
Метод сжатия : С потерями
Размер потока : 528 Мбайт (5%)
Заголовок : AVO (Владимир Королёв)
Язык : Russian
Service kind : Complete Main
Default : Нет
Forced : Нет

Аудио #4
Идентификатор : 5
Формат : AC-3
Формат/Информация : Audio Coding 3
Коммерческое название : Dolby Digital
Идентификатор кодека : A_AC3
Продолжительность : 1 ч. 55 м.
Вид битрейта : Постоянный
Битрейт : 448 Кбит/сек
Каналы : 6 каналов
Channel layout : L R C LFE Ls Rs
Частота : 48,0 КГц
Частота кадров : 31,250 кадров/сек (1536 SPF)
Метод сжатия : С потерями
Задержка видео : 24 мс.
Размер потока : 369 Мбайт (4%)
Заголовок : MVO (Так Треба Продакшн)
Язык : Ukrainian
Service kind : Complete Main
Default : Нет
Forced : Нет

Аудио #5
Идентификатор : 6
Формат : AC-3
Формат/Информация : Audio Coding 3
Коммерческое название : Dolby Digital
Идентификатор кодека : A_AC3
Продолжительность : 1 ч. 55 м.
Вид битрейта : Постоянный
Битрейт : 448 Кбит/сек
Каналы : 6 каналов
Channel layout : L R C LFE Ls Rs
Частота : 48,0 КГц
Частота кадров : 31,250 кадров/сек (1536 SPF)
Метод сжатия : С потерями
Задержка видео : 24 мс.
Размер потока : 369 Мбайт (4%)
Заголовок : DVO (Новий Канал)
Язык : Ukrainian
Service kind : Complete Main
Default : Нет
Forced : Нет

Аудио #6
Идентификатор : 7
Формат : AC-3
Формат/Информация : Audio Coding 3
Коммерческое название : Dolby Digital
Идентификатор кодека : A_AC3
Продолжительность : 1 ч. 55 м.
Вид битрейта : Постоянный
Битрейт : 640 Кбит/сек
Каналы : 6 каналов
Channel layout : L R C LFE Ls Rs
Частота : 48,0 КГц
Частота кадров : 31,250 кадров/сек (1536 SPF)
Метод сжатия : С потерями
Размер потока : 528 Мбайт (5%)
Язык : English
Service kind : Complete Main
Default : Нет
Forced : Нет

Текст #1
Идентификатор : 8
Формат : UTF-8
Идентификатор кодека : S_TEXT/UTF8
Идентификатор кодека/Информация : UTF-8 Plain Text
Продолжительность : 1 ч. 37 м.
Битрейт : 0 бит/сек
Count of elements : 14
Размер потока : 592 байт (0%)
Заголовок : Русские [форсированные]
Язык : Russian
Default : Да
Forced : Нет

Текст #2
Идентификатор : 9
Формат : UTF-8
Идентификатор кодека : S_TEXT/UTF8
Идентификатор кодека/Информация : UTF-8 Plain Text
Продолжительность : 1 ч. 52 м.
Битрейт : 134 бит/сек
Count of elements : 1821
Размер потока : 111 Кбайт (0%)
Заголовок : Русские [полные]
Язык : Russian
Default : Нет
Forced : Нет

Текст #3
Идентификатор : 10
Формат : UTF-8
Идентификатор кодека : S_TEXT/UTF8
Идентификатор кодека/Информация : UTF-8 Plain Text
Продолжительность : 1 ч. 54 м.
Битрейт : 128 бит/сек
Count of elements : 1852
Размер потока : 108 Кбайт (0%)
Заголовок : Украинские [полные]
Язык : Ukrainian
Default : Нет
Forced : Нет

Текст #4
Идентификатор : 11
Формат : UTF-8
Идентификатор кодека : S_TEXT/UTF8
Идентификатор кодека/Информация : UTF-8 Plain Text
Продолжительность : 1 ч. 53 м.
Битрейт : 88 бит/сек
Count of elements : 2345
Размер потока : 73,1 Кбайт (0%)
Заголовок : Английские [SDH]
Язык : English
Default : Нет
Forced : Нет

Меню
00:00:00.000 : Gonna Get Married (Main Titles)
00:06:10.119 : Setting Sail
00:14:37.668 : The Manary Gland
00:20:13.211 : Welcome to Miami
00:26:22.997 : The Wall of Gaylord
00:31:20.794 : A Little Secret
00:35:50.522 : Cat and Dog
00:38:21.798 : Personal Memories
00:46:46.426 : Family Matters
00:51:25.872 : Blood Sport
00:57:54.260 : Feberized
01:03:58.707 : "You Look Like Someone I Know"
01:11:30.491 : Bodywork
01:16:01.512 : The Mobil Command Center
01:20:24.441 : A Lot in Command
01:24:46.995 : Tell the Truth
01:30:23.747 : Must Leave Evil Island
01:35:53.827 : Remain Calm
01:44:45.483 : A Spiritual Connection
01:50:17.147 : Spy Cam (End Titles)
Загрузка...Cкриншот1 Знакомство с Факерами / Meet the Fockers (2004) BDRip 1080p [HEVC] 10 bit от OldGamerЗагрузка...Cкриншот2 Знакомство с Факерами / Meet the Fockers (2004) BDRip 1080p [HEVC] 10 bit от OldGamerЗагрузка...Cкриншот3 Знакомство с Факерами / Meet the Fockers (2004) BDRip 1080p [HEVC] 10 bit от OldGamerЗагрузка...Cкриншот4 Знакомство с Факерами / Meet the Fockers (2004) BDRip 1080p [HEVC] 10 bit от OldGamer
Сэмпл
3. Знакомство с Факерами 2 / Little Fockers (2010) BDRip 1080p [HEVC] 10 bit от OldGamer
HEVC
10 bit
Обложка Знакомство с Факерами 2 / Little Fockers (2010) BDRip 1080p [HEVC] 10 bit от OldGamer Год: 2010
Страна: США
Студия: DW Studios, Everyman Pictures, Paramount Pictures, Relativity Media, Tribeca Productions, Universal Pictures
Жанр: Мелодрама, Комедия
Продолжительность: 01:37:47

Режиссер: Пол Вайц
В ролях: Роберт Де Ниро, Бен Стиллер, Оуэн Уилсон, Тери Поло, Блайт Даннер, Джессика Альба, Дастин Хоффман, Барбра Стрейзанд, Лора Дерн, Харви Кейтель

Описание: 10 лет, двое детей и бесчисленные испытания понадобились Грегу для того, чтобы тесть частично примирился с его существованием. Но после того как Грег, оказавшись на мели, находит себе халтуру в фармацевтической компании, подозрения Джека увеличиваются в геометрической прогрессии. Когда все семейство Грега и Пэм, включая её бывшего возлюбленного Кевина, соберутся на день рождения близнецов, Грегу придётся доказать скептично настроенному Джеку, что он настоящий хозяин в доме. Недоразумения, слежка, миссии под прикрытием — как все это поможет Грегу пройти последнее испытание и стать новым главой семьи? Или возникшее между родственниками доверие будет подорвано... к лучшему?


Исходник: Blu-Ray Remux 1080p
Видео: 1920x1040 (1.85:1), 11,4 Мбит/сек, HEVC (Main10@L.4.1@High)
Аудио1: AC3, 6 ch, 640 Kbps - РусскийРусский, Дублированный
Аудио2: AC3, 6 ch, 384 Kbps - УкраинскийУкраинский, Многоголосый (K1)
Аудио3: AC3, 6 ch, 640 Kbps - EnglishEnglish, Original
Субтитры: Русские полные (SRT), Украинские полные (SRT), English full (SRT)

Как за пару секунд удалить ненужные аудиодорожки и субтитры (Внимание! После удаления вы не сможете поддержать раздачу)

Лог (x265 info)
x265 [info]: frame I: 589, Avg QP:17.94 kb/s: 30555.20
x265 [info]: frame P: 22336, Avg QP:19.35 kb/s: 23202.23
x265 [info]: frame B: 117763, Avg QP:20.75 kb/s: 9073.36
x265 [info]: Weighted P-Frames: Y:4.4% UV:3.3%
x265 [info]: Weighted B-Frames: Y:2.4% UV:1.5%
x265 [info]: consecutive B-frames: 1.3% 1.8% 3.2% 20.8% 13.8% 28.8% 6.4% 8.4% 4.2% 6.5% 1.9% 1.5% 0.6% 0.6% 0.1% 0.2%
x265 [info]: encoded 140688 frames in 132920.00s (1.06 fps), 11406.43 kb/s, Avg QP:20.52
Медиаинфо
Общее
Уникальный идентификатор : 157301448596865268004668700281059152303 (0x765728321F899BA89472678BA7CC11AF)
Полное имя : \\.\03.Знакомство.с.Факерами.2.Little.Fockers.2010.BDRip-HEVC.1080p.mkv
Формат : Matroska
Версия формата : Version 4
Размер файла : 8,93 Гбайт
Продолжительность : 1 ч. 37 м.
Общий поток : 13,1 Мбит/сек
Название фильма : 03.Знакомство.с.Факерами.2.Little.Fockers.2010.BDRip-HEVC.1080p
Дата кодирования : UTC 2021-05-07 13:30:28
Программа кодирования : mkvmerge v56.1.0 ('My Friend') 64-bit
Библиотека кодирования : libebml v1.4.2 + libmatroska v1.6.4

Видео
Идентификатор : 1
Формат : HEVC
Формат/Информация : High Efficiency Video Coding
Профиль формата : Main 10@L4.1@High
Идентификатор кодека : V_MPEGH/ISO/HEVC
Продолжительность : 1 ч. 37 м.
Битрейт : 11,4 Мбит/сек
Ширина : 1 920 пикселей
Высота : 1 040 пикселей
Соотношение сторон : 1,85:1
Режим частоты кадров : Постоянный
Частота кадров : 23,976 (24000/1001) кадра/сек
Цветовое пространство : YUV
Субдискретизация насыщенности : 4:2:0
Битовая глубина : 10 бит
Бит/(Пиксели*Кадры) : 0.238
Размер потока : 7,79 Гбайт (87%)
Заголовок : Little Fockers / Rip by OldGamer
Библиотека кодирования : x265 3.5+1-ce882936d:[Windows][GCC 10.2.0][64 bit] 10bit
Настройки программы : cpuid=1111039 / frame-threads=3 / numa-pools=8 / wpp / no-pmode / no-pme / no-psnr / no-ssim / log-level=2 / input-csp=1 / input-res=1920x1040 / interlace=0 / total-frames=140688 / level-idc=41 / high-tier=1 / uhd-bd=0 / ref=5 / no-allow-non-conformance / no-repeat-headers / annexb / no-aud / no-hrd / info / hash=0 / no-temporal-layers / open-gop / min-keyint=23 / keyint=240 / gop-lookahead=0 / bframes=15 / b-adapt=2 / b-pyramid / bframe-bias=0 / rc-lookahead=40 / lookahead-slices=0 / scenecut=40 / hist-scenecut=0 / radl=0 / no-splice / no-intra-refresh / ctu=32 / min-cu-size=8 / rect / amp / max-tu-size=32 / tu-inter-depth=4 / tu-intra-depth=4 / limit-tu=1 / rdoq-level=2 / dynamic-rd=0.00 / no-ssim-rd / signhide / no-tskip / nr-intra=0 / nr-inter=0 / no-constrained-intra / no-strong-intra-smoothing / max-merge=5 / limit-refs=3 / no-limit-modes / me=3 / subme=7 / merange=57 / temporal-mvp / no-frame-dup / no-hme / weightp / weightb / no-analyze-src-pics / deblock=-3:-3 / no-sao / no-sao-non-deblock / rd=6 / selective-sao=0 / no-early-skip / rskip / no-fast-intra / no-tskip-fast / no-cu-lossless / b-intra / no-splitrd-skip / rdpenalty=0 / psy-rd=2.00 / psy-rdoq=1.00 / no-rd-refine / no-lossless / cbqpoffs=0 / crqpoffs=0 / rc=crf / crf=19.2 / qcomp=0.60 / qpstep=4 / stats-write=0 / stats-read=0 / vbv-maxrate=50000 / vbv-bufsize=50000 / vbv-init=0.9 / min-vbv-fullness=50.0 / max-vbv-fullness=80.0 / crf-max=0.0 / crf-min=0.0 / ipratio=1.40 / pbratio=1.30 / aq-mode=1 / aq-strength=1.00 / no-cutree / zone-count=1 / zones: / start-frame=134393 / end-frame=140688 / qp=36 / no-strict-cbr / qg-size=32 / no-rc-grain / qpmax=69 / qpmin=0 / no-const-vbv / sar=1 / overscan=0 / videoformat=5 / range=0 / colorprim=2 / transfer=2 / colormatrix=2 / chromaloc=0 / display-window=0 / cll=0,0 / min-luma=0 / max-luma=1023 / log2-max-poc-lsb=8 / vui-timing-info / vui-hrd-info / slices=1 / no-opt-qp-pps / no-opt-ref-list-length-pps / no-multi-pass-opt-rps / scenecut-bias=0.00 / hist-threshold=0.03 / no-opt-cu-delta-qp / no-aq-motion / no-hdr10 / no-hdr10-opt / no-dhdr10-opt / no-idr-recovery-sei / analysis-reuse-level=0 / analysis-save-reuse-level=0 / analysis-load-reuse-level=0 / scale-factor=0 / refine-intra=0 / refine-inter=0 / refine-mv=1 / refine-ctu-distortion=0 / no-limit-sao / ctu-info=0 / no-lowpass-dct / refine-analysis-type=0 / copy-pic=1 / max-ausize-factor=1.0 / no-dynamic-refine / no-single-sei / no-hevc-aq / no-svt / no-field / qp-adaptation-range=1.00 / scenecut-aware-qp=0conformance-window-offsets / right=0 / bottom=0 / decoder-max-rate=0 / no-vbv-live-multi-pass
Язык : English
Default : Да
Forced : Нет

Аудио #1
Идентификатор : 2
Формат : AC-3
Формат/Информация : Audio Coding 3
Коммерческое название : Dolby Digital
Идентификатор кодека : A_AC3
Продолжительность : 1 ч. 37 м.
Вид битрейта : Постоянный
Битрейт : 640 Кбит/сек
Каналы : 6 каналов
Channel layout : L R C LFE Ls Rs
Частота : 48,0 КГц
Частота кадров : 31,250 кадров/сек (1536 SPF)
Метод сжатия : С потерями
Размер потока : 448 Мбайт (5%)
Заголовок : DUB
Язык : Russian
Service kind : Complete Main
Default : Да
Forced : Нет

Аудио #2
Идентификатор : 3
Формат : AC-3
Формат/Информация : Audio Coding 3
Коммерческое название : Dolby Digital
Идентификатор кодека : A_AC3
Продолжительность : 1 ч. 37 м.
Вид битрейта : Постоянный
Битрейт : 384 Кбит/сек
Каналы : 6 каналов
Channel layout : L R C LFE Ls Rs
Частота : 48,0 КГц
Частота кадров : 31,250 кадров/сек (1536 SPF)
Метод сжатия : С потерями
Размер потока : 269 Мбайт (3%)
Заголовок : MVO (K1)
Язык : Ukrainian
Service kind : Complete Main
Default : Нет
Forced : Нет

Аудио #3
Идентификатор : 4
Формат : AC-3
Формат/Информация : Audio Coding 3
Коммерческое название : Dolby Digital
Идентификатор кодека : A_AC3
Продолжительность : 1 ч. 37 м.
Вид битрейта : Постоянный
Битрейт : 640 Кбит/сек
Каналы : 6 каналов
Channel layout : L R C LFE Ls Rs
Частота : 48,0 КГц
Частота кадров : 31,250 кадров/сек (1536 SPF)
Метод сжатия : С потерями
Размер потока : 448 Мбайт (5%)
Язык : English
Service kind : Complete Main
Default : Нет
Forced : Нет

Текст #1
Идентификатор : 5
Формат : UTF-8
Идентификатор кодека : S_TEXT/UTF8
Идентификатор кодека/Информация : UTF-8 Plain Text
Продолжительность : 1 ч. 32 м.
Битрейт : 127 бит/сек
Count of elements : 1835
Размер потока : 86,4 Кбайт (0%)
Заголовок : Sub
Язык : Russian
Default : Нет
Forced : Нет

Текст #2
Идентификатор : 6
Формат : UTF-8
Идентификатор кодека : S_TEXT/UTF8
Идентификатор кодека/Информация : UTF-8 Plain Text
Продолжительность : 1 ч. 32 м.
Битрейт : 133 бит/сек
Count of elements : 1837
Размер потока : 90,5 Кбайт (0%)
Заголовок : Sub
Язык : Ukrainian
Default : Нет
Forced : Нет

Текст #3
Идентификатор : 7
Формат : UTF-8
Идентификатор кодека : S_TEXT/UTF8
Идентификатор кодека/Информация : UTF-8 Plain Text
Продолжительность : 1 ч. 36 м.
Битрейт : 101 бит/сек
Count of elements : 2171
Размер потока : 71,7 Кбайт (0%)
Заголовок : Sub
Язык : English
Default : Нет
Forced : Нет

Меню
00:00:00.000 : Chapter 1
00:03:02.891 : Chapter 2
00:08:45.358 : Chapter 3
00:12:11.731 : Chapter 4
00:15:11.744 : Chapter 5
00:20:26.016 : Chapter 6
00:28:40.385 : Chapter 7
00:33:50.570 : Chapter 8
00:37:37.004 : Chapter 9
00:40:15.913 : Chapter 10
00:44:57.486 : Chapter 11
00:49:33.053 : Chapter 12
00:54:41.486 : Chapter 13
00:58:29.464 : Chapter 14
01:02:21.195 : Chapter 15
01:08:39.448 : Chapter 16
01:13:48.882 : Chapter 17
01:20:46.466 : Chapter 18
01:26:56.252 : Chapter 19
01:31:31.444 : Chapter 20
01:37:47.653 : Chapter 21
Загрузка...Cкриншот1 Знакомство с Факерами 2 / Little Fockers (2010) BDRip 1080p [HEVC] 10 bit от OldGamerЗагрузка...Cкриншот2 Знакомство с Факерами 2 / Little Fockers (2010) BDRip 1080p [HEVC] 10 bit от OldGamerЗагрузка...Cкриншот3 Знакомство с Факерами 2 / Little Fockers (2010) BDRip 1080p [HEVC] 10 bit от OldGamerЗагрузка...Cкриншот4 Знакомство с Факерами 2 / Little Fockers (2010) BDRip 1080p [HEVC] 10 bit от OldGamer
Сэмпл
Релиз-группа: RIPS CLUB
Торрент🧲 Магнет

Рейтинги КП и IMDB, кнопки "Позвать в чате" и "Спасибо", а также мультитрекерная статистика доступны только зарегистрированным/авторизованным пользователям!

Файлы: 3
  • Знакомство.с.родителями.Meet.the.Parents.2000-2010.BDRip-HEVC.1080p
    • 01.Знакомство.с.родителями.Meet.the.Parents.2000.BDRip-HEVC.1080p.mkv   7.85 ГБ
    • 02.Знакомство.с.Факерами.Meet.the.Fockers.2004.BDRip-HEVC.1080p.mkv   10.16 ГБ
    • 03.Знакомство.с.Факерами.2.Little.Fockers.2010.BDRip-HEVC.1080p.mkv   8.93 ГБ
Поблагодарили: 13
Brooklyn, diesel0000, FijiMAX, IRIT, Kiran, ko1ob, makss333, Manson_Fan, Mr. Fox, NoMaD, Nuclear70, Rezident, StarLord
OldGamer
317130 (3)  26.94 ГБ

Добавление нового комментария

Добавление комментариев доступно только зарегистрированным/авторизованным пользователям.
Аватар OldGamer
  OldGamer  
нет, это не "с HDR какого нибудь рип"
Аватар Manson_Fan
  Manson_Fan  
Это с HDR какого нибудь рип? что-то кожа красная стала по сравнению со старыми HEVC рипами (сравнил первые 2 части)
Аватар Mr. Fox
  Mr. Fox  
Зачетно!👍