Чат

⚫︎
Список изменений сайта - https://rips.club/changelog.html (обновлен 24.05.2024)
  • ancestor87
  • arwis
  • natali
Онлайн (за 10 мин.): 3
  • Tastod: Раздайте, пожалуйста, Загадочная история Бенджамина Баттона / The Curious Case of Benjamin Button (2008) BDRip 1080p [HEVC] 10 bit от Spartanec1308
  • Гл. Админ: Исправил баг, когда после анонса коллекции все анонсы показывались в спойлере, даже если не являлись коллекцией.
  • Гл. Админ: Исправил баг, когда в ЛС не возможно было удалить сообщение.
  • bronsonw200: Гл. Админ, Как по мне, так смотрится приятнее.
  • Гл. Админ: В светлой теме задний фон сделал чуть потемнее, чтобы было не слишком ярко. В темной теме поисковую строку сделал черной (как в светлой теме), чтобы выделялась. Убрал рамки вокруг элементов форм. Прокрутку страницы в начало сделал плавной. ( отредактировано: )
  • Гл. Админ: В ближайшие дни по вечерам начну подправлять дизайн.
  • Гл. Админ: Готово.
  • Гл. Админ: Управление релизами закончил, но не буду выкладывать на ночь глядя. Утром протестирую на локальном компе, и днем выложу.
  • Гл. Админ: Фон баннера релиз-группы сделал прозрачным и перезалил на внешнем хостинге.
  • OldGamer: было бы неплохо
  • Гл. Админ: Управление релизами наверно сегодня закончу.
  • HANNIBAL: Сообщение удалено (удалил: HANNIBAL)
  • HANNIBAL: Гл. Админ, не привычно
  • Гл. Админ: HANNIBAL, хорошего или плохого?
  • HANNIBAL: эт чей-то вы тут натворили с сайтом ;)
  • Гл. Админ: ExoticDeer, просто в будущем будет несколько новостных строчек и они будут автоматически переключаться по кругу, поэтому не хочется статичную. Могу ещё уменьшить частоту, если всё равно будет отвлекать. ( отредактировано: )
  • Гл. Админ: ExoticDeer, уменьшил частоту мигания с 5 сек. до 10 сек.
  • ExoticDeer: Гл. Админ, про мигание, скорее отвлекает, особенно на тёмной теме. статичная хорошо смотрелась
  • Гл. Админ: Winsent, Исправил. Теперь, при просмотре комментариев конкретного пользователя, эта галочка не играет роли. Спасибо, что сообщили.
  • Гл. Админ: Winsent, сначала не поверил своим глазам. Это было оооочень странно. Но кажется теперь понял в чем проблема. Ошибка появляется, если в настройках не установлена галочка "Получать уведомления о всех комментариях". Причем у разных пользователей проявляется по разному - у кого-то ничего не показывается, а у кого-то показывается часть комментариев. Поэтому мне долго не удавалось воспроизвести ошибку. Сейчас исправлю.
Отправка сообщений доступна только зарегистрированным/авторизованным пользователям.

🎥︎Афера Томаса Крауна / The Thomas Crown Affair (1999) BDRip 1080p [HEVC] 10 bit от Spartanec1308


Обложка Афера Томаса Крауна / The Thomas Crown Affair (1999) BDRip 1080p [HEVC] 10 bit от Spartanec1308
HEVC
10 bit
✂︎Сэмпл⤓︎Торрент🧲︎Магнет$Пожертвования
Год: 1999
Страна: США
Студия: Irish DreamTime, Metro-Goldwyn-Mayer (MGM), United Artists
Жанр: Триллер, Мелодрама, Криминал
Длительность: 01:53:17

Режиссер: Джон МакТирнан
В ролях: Пирс Броснан, Рене Руссо, Дэнис Лири, Бен Газзара, Фрэнки Фэйзон, Фриц Уивер, Чарлз Китинг, Марк Марголис, Фэй Данауэй, Майкл Ломбард, Билл Эмбрози, Майкл Бахр, Роберт Д. Новак, Джо Х. Лэмб, Джеймс Саито, Эстер Каньядас, Миша Хауссерман, Дэниэл Орескес, Доминик Чианиз мл., Ричи Костер, Грегг Белло, Джон П. МакКэн, Джино Лукки, Джордж Кристи, Майк Дэннер, Джеймс Дж. Арчер, Роберт Спиллейн, Дэниэл Гибсон, Синтия Дарлоу

Описание: Невероятно богатый и привлекательный мультимиллионер Томас Краун, разрабатывает и исполняет дерзкий план похищения бесценной картины Клода Моне средь бела дня из тщательно охраняемого музея на Манхэттене. Инспектор страховой компании Кэтрин Бэннинг, приступившая к розыску произведения искусства – дама умная, и сразу понимает, кто вор, но не располагает доказательствами для разоблачения. Именно Кэтрин станет для мистера Крауна самым достойным противником, которого ему, любителю острых ощущений, так не хватает в жизни...


Видео: 1920x816, 7825 Кбит/сек, 0.208 бит/(Пиксели*Кадры), 23,976 кадр/сек, HEVC (Main10@L.4.1@High) 10 бит
Аудио1: AC3, 6 ch, 640 Kbps - РусскийРусский, Многоголосый (Liga HQ)
Аудио2: AC3, 2 ch, 224 Kbps - РусскийРусский, Многоголосый (20th Century Fox)
Аудио3: AC3, 2 ch, 192 Kbps - РусскийРусский, Многоголосый (НТВ+)
Аудио4: AC3, 6 ch, 640 Kbps - РусскийРусский, Одноголосый (А. Гаврилов)
Аудио5: AC3, 6 ch, 640 Kbps - РусскийРусский, Одноголосый (Ю. Живов)
Аудио6: AC3, 6 ch, 640 Kbps - АнглийскийАнглийский, Оригинал
Субтитры: Русские , английские

Как за несколько секунд удалить ненужные аудиодорожки и субтитры (Внимание! После удаления вы не сможете поддержать раздачу)


Лог (x265 info)x265 [info]: frame I: 1251, Avg QP:17.80 kb/s: 24086.12
x265 [info]: frame P: 31160, Avg QP:19.20 kb/s: 16780.03
x265 [info]: frame B: 130558, Avg QP:21.47 kb/s: 5530.91
x265 [info]: Weighted P-Frames: Y:10.7% UV:7.8%
x265 [info]: Weighted B-Frames: Y:7.5% UV:4.8%
x265 [info]: consecutive B-frames: 5.5% 2.4% 4.6% 32.4% 8.3% 31.0% 5.1% 10.4% 0.2% 0.1% 0.0%

encoded 162969 frames in 240634.49s (0.68 fps), 7824.20 kb/s, Avg QP:21.01
МедиаинфоФормат : Matroska
Версия формата : Version 4
Размер файла : 8,55 Гбайт
Продолжительность : 1 ч. 53 м.
Общий поток : 10,8 Мбит/сек
Название фильма : by Spartanec
Дата кодирования : UTC 2021-06-14 18:12:18
Программа кодирования : mkvmerge v7.0.0 ('Where We Going') 64bit built on Jun 9 2014 15:16:27
Библиотека кодирования : libebml v1.3.0 + libmatroska v1.4.1
Обложка : Yes
Attachments : cover.jpg

Видео
Идентификатор : 1
Формат : HEVC
Формат/Информация : High Efficiency Video Coding
Профиль формата : Main 10@L4.1@High
Идентификатор кодека : V_MPEGH/ISO/HEVC
Продолжительность : 1 ч. 53 м.
Битрейт : 7825 Кбит/сек
Ширина : 1920 пикселей
Высота : 816 пикселей
Соотношение сторон : 2,35:1
Режим частоты кадров : Постоянный
Частота кадров : 23,976 (23976/1000) кадра/сек
Частота кадров в оригинале : 23,976 (24000/1001) кадра/сек
Цветовое пространство : YUV
Субдискретизация насыщенности : 4:2:0
Битовая глубина : 10 бит
Бит/(Пиксели*Кадры) : 0.208
Размер потока : 6,19 Гбайт (72%)
Заголовок : Spartanec
Библиотека кодирования : x265 3.5+1-ce882936d:[Windows][GCC 10.2.0][64 bit] 10bit
Настройки программы : cpuid=1111039 / frame-threads=4 / numa-pools=16 / wpp / no-pmode / no-pme / no-psnr / no-ssim / log-level=2 / input-csp=1 / input-res=1920x816 / interlace=0 / total-frames=162969 / level-idc=41 / high-tier=1 / uhd-bd=0 / ref=5 / no-allow-non-conformance / no-repeat-headers / annexb / no-aud / no-hrd / info / hash=0 / no-temporal-layers / open-gop / min-keyint=23 / keyint=240 / gop-lookahead=0 / bframes=10 / b-adapt=2 / b-pyramid / bframe-bias=0 / rc-lookahead=60 / lookahead-slices=1 / scenecut=40 / hist-scenecut=0 / radl=0 / no-splice / no-intra-refresh / ctu=32 / min-cu-size=8 / rect / amp / max-tu-size=32 / tu-inter-depth=4 / tu-intra-depth=4 / limit-tu=1 / rdoq-level=1 / dynamic-rd=0.00 / no-ssim-rd / signhide / no-tskip / nr-intra=0 / nr-inter=0 / no-constrained-intra / no-strong-intra-smoothing / max-merge=5 / limit-refs=0 / no-limit-modes / me=3 / subme=7 / merange=57 / temporal-mvp / no-frame-dup / no-hme / weightp / weightb / no-analyze-src-pics / deblock=-2:-2 / no-sao / no-sao-non-deblock / rd=6 / selective-sao=0 / no-early-skip / no-rskip / no-fast-intra / no-tskip-fast / no-cu-lossless / b-intra / no-splitrd-skip / rdpenalty=0 / psy-rd=2.00 / psy-rdoq=1.00 / no-rd-refine / no-lossless / cbqpoffs=0 / crqpoffs=0 / rc=crf / crf=20.6 / qcomp=0.70 / qpstep=4 / stats-write=0 / stats-read=0 / vbv-maxrate=50000 / vbv-bufsize=50000 / vbv-init=0.9 / min-vbv-fullness=50.0 / max-vbv-fullness=80.0 / crf-max=0.0 / crf-min=0.0 / ipratio=1.40 / pbratio=1.30 / aq-mode=2 / aq-strength=1.00 / no-cutree / zone-count=0 / no-strict-cbr / qg-size=32 / no-rc-grain / qpmax=69 / qpmin=0 / no-const-vbv / sar=1 / overscan=0 / videoformat=5 / range=0 / colorprim=1 / transfer=1 / colormatrix=1 / chromaloc=0 / display-window=0 / cll=0,0 / min-luma=0 / max-luma=1023 / log2-max-poc-lsb=8 / vui-timing-info / vui-hrd-info / slices=1 / no-opt-qp-pps / no-opt-ref-list-length-pps / no-multi-pass-opt-rps / scenecut-bias=0.05 / hist-threshold=0.03 / no-opt-cu-delta-qp / no-aq-motion / no-hdr10 / no-hdr10-opt / no-dhdr10-opt / no-idr-recovery-sei / analysis-reuse-level=0 / analysis-save-reuse-level=0 / analysis-load-reuse-level=0 / scale-factor=0 / refine-intra=0 / refine-inter=0 / refine-mv=0 / refine-ctu-distortion=0 / no-limit-sao / ctu-info=0 / no-lowpass-dct / refine-analysis-type=0 / copy-pic=1 / max-ausize-factor=1.0 / no-dynamic-refine / no-single-sei / no-hevc-aq / no-svt / no-field / qp-adaptation-range=1.00 / scenecut-aware-qp=0conformance-window-offsets / right=0 / bottom=0 / decoder-max-rate=0 / no-vbv-live-multi-pass
Default : Да
Forced : Нет
Цветовой диапазон : Limited
Основные цвета : BT.709
Характеристики трансфера : BT.709
Коэффициенты матрицы : BT.709

Аудио #1
Идентификатор : 2
Формат : AC-3
Формат/Информация : Audio Coding 3
Коммерческое название : Dolby Digital
Идентификатор кодека : A_AC3
Продолжительность : 1 ч. 53 м.
Вид битрейта : Постоянный
Битрейт : 640 Кбит/сек
Каналы : 6 каналов
ChannelLayout : L R C LFE Ls Rs
Частота : 48,0 КГц
Частота кадров : 31,250 кадров/сек (1536 SPF)
Битовая глубина : 16 бит
Метод сжатия : С потерями
Размер потока : 519 Мбайт (6%)
Заголовок : Профессиональный многоголосый (Liga HQ)
ServiceKind/ : Complete Main
Default : Да
Forced : Нет

Аудио #2
Идентификатор : 3
Формат : AC-3
Формат/Информация : Audio Coding 3
Коммерческое название : Dolby Digital
Идентификатор кодека : A_AC3
Продолжительность : 1 ч. 53 м.
Вид битрейта : Постоянный
Битрейт : 224 Кбит/сек
Каналы : 2 канала
ChannelLayout : L R
Частота : 48,0 КГц
Частота кадров : 31,250 кадров/сек (1536 SPF)
Битовая глубина : 16 бит
Метод сжатия : С потерями
Размер потока : 182 Мбайт (2%)
Заголовок : Профессиональный многоголосый (20th Century Fox)
ServiceKind/ : Complete Main
Default : Нет
Forced : Нет

Аудио #3
Идентификатор : 4
Формат : AC-3
Формат/Информация : Audio Coding 3
Коммерческое название : Dolby Digital
Идентификатор кодека : A_AC3
Продолжительность : 1 ч. 53 м.
Вид битрейта : Постоянный
Битрейт : 192 Кбит/сек
Каналы : 2 канала
ChannelLayout : L R
Частота : 48,0 КГц
Частота кадров : 31,250 кадров/сек (1536 SPF)
Битовая глубина : 16 бит
Метод сжатия : С потерями
Размер потока : 156 Мбайт (2%)
Заголовок : Профессиональный многоголосый (НТВ+)
ServiceKind/ : Complete Main
Default : Нет
Forced : Нет

Аудио #4
Идентификатор : 5
Формат : AC-3
Формат/Информация : Audio Coding 3
Коммерческое название : Dolby Digital
Идентификатор кодека : A_AC3
Продолжительность : 1 ч. 53 м.
Вид битрейта : Постоянный
Битрейт : 640 Кбит/сек
Каналы : 6 каналов
ChannelLayout : L R C LFE Ls Rs
Частота : 48,0 КГц
Частота кадров : 31,250 кадров/сек (1536 SPF)
Битовая глубина : 16 бит
Метод сжатия : С потерями
Размер потока : 519 Мбайт (6%)
Заголовок : Авторский Андрей Гаврилов
ServiceKind/ : Complete Main
Default : Нет
Forced : Нет

Аудио #5
Идентификатор : 6
Формат : AC-3
Формат/Информация : Audio Coding 3
Коммерческое название : Dolby Digital
Идентификатор кодека : A_AC3
Продолжительность : 1 ч. 53 м.
Вид битрейта : Постоянный
Битрейт : 640 Кбит/сек
Каналы : 6 каналов
ChannelLayout : L R C LFE Ls Rs
Частота : 48,0 КГц
Частота кадров : 31,250 кадров/сек (1536 SPF)
Битовая глубина : 16 бит
Метод сжатия : С потерями
Размер потока : 519 Мбайт (6%)
Заголовок : Юрий Живов
ServiceKind/ : Complete Main
Default : Нет
Forced : Нет

Аудио #6
Идентификатор : 9
Формат : AC-3
Формат/Информация : Audio Coding 3
Коммерческое название : Dolby Digital
Идентификатор кодека : A_AC3
Продолжительность : 1 ч. 53 м.
Вид битрейта : Постоянный
Битрейт : 640 Кбит/сек
Каналы : 6 каналов
ChannelLayout : L R C LFE Ls Rs
Частота : 48,0 КГц
Частота кадров : 31,250 кадров/сек (1536 SPF)
Битовая глубина : 16 бит
Метод сжатия : С потерями
Размер потока : 519 Мбайт (6%)
Заголовок : Оригинал
ServiceKind/ : Complete Main
Default : Нет
Forced : Нет

Текст #1
Идентификатор : 7
Формат : UTF-8
Идентификатор кодека : S_TEXT/UTF8
Идентификатор кодека/Информация : UTF-8 Plain Text
Продолжительность : 1 ч. 47 м.
Битрейт : 77 бит/сек
ElementCount : 1022
Размер потока : 60,6 Кбайт (0%)
Заголовок : Русские
Default : Нет
Forced : Нет

Текст #2
Идентификатор : 8
Формат : UTF-8
Идентификатор кодека : S_TEXT/UTF8
Идентификатор кодека/Информация : UTF-8 Plain Text
Продолжительность : 1 ч. 47 м.
Битрейт : 47 бит/сек
ElementCount : 1198
Размер потока : 37,5 Кбайт (0%)
Заголовок : Английские
Default : Нет
Forced : Нет

Меню
00:00:00.000 : :(безымянный)
00:04:43.116 : :(безымянный)
00:08:50.112 : :(безымянный)
00:10:42.850 : :(безымянный)
00:18:41.745 : :(безымянный)
00:27:00.744 : :(безымянный)
00:33:09.487 : :(безымянный)
00:38:41.902 : :(безымянный)
00:44:29.958 : :(безымянный)
00:49:51.488 : :(безымянный)
00:55:47.093 : :(безымянный)
01:04:54.432 : :(безымянный)
01:10:20.424 : :(безымянный)
01:15:39.576 : :(безымянный)
01:22:20.769 : :(безымянный)
01:28:21.754 : :(безымянный)
01:32:35.841 : :(безымянный)
01:38:21.687 : :(безымянный)
01:43:19.234 : :(безымянный)
01:47:45.500 : :(безымянный)
Загрузка...Cкриншот1 Афера Томаса Крауна / The Thomas Crown Affair (1999) BDRip 1080p [HEVC] 10 bit от Spartanec1308Загрузка...Cкриншот2 Афера Томаса Крауна / The Thomas Crown Affair (1999) BDRip 1080p [HEVC] 10 bit от Spartanec1308Загрузка...Cкриншот3 Афера Томаса Крауна / The Thomas Crown Affair (1999) BDRip 1080p [HEVC] 10 bit от Spartanec1308Загрузка...Cкриншот4 Афера Томаса Крауна / The Thomas Crown Affair (1999) BDRip 1080p [HEVC] 10 bit от Spartanec1308
Поблагодарили: 13and50, AndresUA, Brooklyn, bs158250, diesel0000, ilyich05, kapany3, Kiran, lorenz82, makss333, NoMaD, Rexaur, Rezident
Файлы: 1
  • Афера Томаса Крауна (1999) BDRip 1080p [HEVC] 10bit by Spartanec.mkv

Рейтинги КП и IMDB, кнопки "Раздайте, пожалуйста" и "Спасибо", а также мультитрекерная статистика доступны только зарегистрированным/авторизованным пользователям!

Spartanec
008118.55 ГБ

💬︎ Комментарии

Добавление комментариев доступно только зарегистрированным/авторизованным пользователям.

Всего: 1
Аватар NoMaD
NoMaD
Отличнейший фильм!!! Только жаль что до сих пор нет к нему дубляжа