Чат

⚫︎
Список изменений сайта - https://rips.club/changelog.html (обновлен 24.05.2024)
  • OldGamer
  • Chestnoc
  • Winsent
  • Странник
Онлайн (за 10 мин.): 4
  • Antilord90: Может кто переделает "Секс по дружбе" телики не воспроизводят!
  • Гл. Админ: Niflung, раздаю
  • VIS: Раздайте, пожалуйста, Большое путешествие / The Wild (2006) BDRip 1080p [HEVC] 10 bit от Мичман
  • Niflung: Раздайте, пожалуйста, Тихое место: Дилогия / A Quiet Place: Dilogy (2018-2020) UHD-BDRip 1080p [HEVC] 10 bit [HDR] от Mr. Fox
  • Antilord90: Сообщение удалено (удалил: Antilord90)
  • Niflung: Гл. Админ, Ладно, буду качать 10 bit версию)
  • Гл. Админ: Niflung, у меня только 10-битная версия
  • HANNIBAL: Гл. Админ, все норм раздача идет
  • Niflung: Раздайте, пожалуйста, Берегись автомобиля (1966) [Цветная версия] BDRip 1080p [HEVC] 8 bit от ADVOKAT69
  • Гл. Админ: HANNIBAL, Я удалил раздачу, которую заливал я. А другую заливал ты, и она была как на руторе. Теперь не понятно на что ты перезалил (в чем разница по сравнению с предыдущей, т.е. руторовской), потому что сидов нет. По моему ты не исправил, а сломал ) ( отредактировано: )
  • Гл. Админ: OldGamer, вообще задумка была сделать цветовую дифференциацию как в фильме Кин-дза-дза!, но поскольку желтый ник лучше подходит для випов, то немного не получилось.
  • Гл. Админ: HANNIBAL, их 2. Что там нужно исправлять?
  • Гл. Админ: HANNIBAL, Я думаю в добавок к зеленой могут появиться и другие цвета. ( отредактировано: )
  • HANNIBAL: Гл. Админ, и исправь раздачу Голая правда
  • HANNIBAL: Гл. Админ, не пора убрать с посторов эту зеленую надпись )))
  • HANNIBAL: Сообщение удалено (удалил: HANNIBAL)
  • Гл. Админ: HANNIBAL, админов теперь 2 ( отредактировано: )
  • HANNIBAL: админ привет
  • Antilord90: Раздайте, пожалуйста, Мальчикам это нравится / The House Bunny (2008) BDRip 1080p [HEVC] 10 bit от -Star-Lord- (RG RIPS CLUB)
  • Гл. Админ: Продлил доменное имя (адрес сайта) на год. Что-то он подорожал (24 евро вместо прежних 12). Ещё раз спасибо всем, кто поддерживает финансово. ( отредактировано: )
Отправка сообщений доступна только зарегистрированным/авторизованным пользователям.

🎥︎Сукияки Вестерн Джанго / Sukiyaki Western Django (2007) [ITA Transfer, International Cut] BDRip 1080p [HEVC] 10 bit от -Star-Lord- (RG RIPS CLUB)


Обложка Сукияки Вестерн Джанго / Sukiyaki Western Django (2007) [ITA Transfer, International Cut] BDRip 1080p [HEVC] 10 bit от -Star-Lord- (RG RIPS CLUB)
HEVC
10 bit
✂︎Сэмпл⤓︎Торрент🧲︎Магнет$Пожертвования

При перезаливке на другие сайты просьба указать автора и релиз-группу.


Год: 2007
Страна: Япония
Студия: Dentsu Productions Ltd., Sony Pictures Entertainment (Japan), TV Asahi
Жанр: Боевик, Вестерн
Длительность: 01:38:32

Режиссер: Такаши Миике
В ролях: Хидеаки Ито, Масанобу Андо, Койчи Сато, Каори Момой, Юсуке Исейа, Рендзи Исибаси, Йошино Кимура, Такааки Исибаси, Теруюки Кагава, Тошиюки Нишида, Квентин Тарантино

Описание: Через несколько сот лет после печально знаменитой битвы в заливе Данноура (1185 г.) в далекой японской горной деревушке нарастает напряжение. Одетая в белое банда Гэндзи (из клана Тайра) и одетая в красное банда Хэйкэ (из клана Минамото) вступили в жестокое противостояние, порожденное слухами о спрятанном золоте. Когда в деревне появляется безымянный странник, обремененный темным прошлым, но мастерски владеющий искусством стрельбы, и Гэндзи, и Хэйкэ задают себе вопрос, на чью сторону он встанет. Битва за власть, предательство, похоть и любовь переплетаются, пропитывая землю кровью. Историческая война между кланами вновь обретает жизнь в формах «спагетти-вестерна».


Релиз-группа: RIPS CLUB
Исходник: Sukiyaki Western Django 2007 Repack 1080p Blu-ray Remux VC-1 DTS-HD MA 5.1 - KRaLiMaRKo
Видео: 1920x820, ~8237 Кбит/сек
Аудио1: AC3, 6 ch, 448 Kbps - РусскийРусский, Дублированный
Аудио2: AC3, 6 ch, 448 Kbps - УкраинскийУкраинский, Многоголосый
Аудио3: AC3, 6 ch, 640 Kbps - АнглийскийАнглийский, Оригинал
Субтитры: Русские, английские

Как за несколько секунд удалить ненужные аудиодорожки и субтитры (Внимание! После удаления вы не сможете поддержать раздачу)


Лог (x265 info)x265 [info]: frame I: 1057, Avg QP:18.22 kb/s: 21428.26
x265 [info]: frame P: 30934, Avg QP:19.68 kb/s: 13122.87
x265 [info]: frame B: 110028, Avg QP:21.81 kb/s: 6735.73
x265 [info]: Weighted P-Frames: Y:4.9% UV:3.7%
x265 [info]: Weighted B-Frames: Y:4.4% UV:3.0%
x265 [info]: consecutive B-frames: 7.2% 7.2% 6.2% 42.6% 9.1% 18.9% 3.3% 2.9% 0.6% 1.0% 0.1% 0.3% 0.1% 0.2% 0.0% 0.1% 0.1%

encoded 142019 frames in 133708.23s (1.06 fps), 8236.30 kb/s, Avg QP:21.32
МедиаинфоGeneral
Unique ID : 70471559039064845976029704976091017255 (0x3504541DB1BC837E0C0AF08A0F577027)
Complete name : Sukiyaki Western Django (2007) [ITA Transfer, International Cut] BDRip 1080p H.265 [RUS_UKR_ENG] [RIPS-CLUB].mkv
Format : Matroska
Format version : Version 4
File size : 6.74 GiB
Duration : 1 h 38 min
Overall bit rate : 9 774 kb/s
Movie name : Сукияки Вестерн Джанго / Сукіякі Вестерн Джанго / Sukiyaki Western Django (2007)
Encoded date : UTC 2021-06-09 10:27:37
Writing application : mkvmerge v20.0.0 ('I Am The Sun') 64-bit
Writing library : libebml v1.3.5 + libmatroska v1.4.8
Cover : Yes
Attachments : Cover.jpg

Video
ID : 1
Format : HEVC
Format/Info : High Efficiency Video Coding
Format profile : Main 10@L4.1@High
Codec ID : V_MPEGH/ISO/HEVC
Duration : 1 h 38 min
Bit rate : 8 237 kb/s
Width : 1 920 pixels
Height : 820 pixels
Display aspect ratio : 2.35:1
Frame rate mode : Constant
Frame rate : 23.976 (24000/1001) FPS
Color space : YUV
Chroma subsampling : 4:2:0
Bit depth : 10 bits
Bits/(Pixel*Frame) : 0.218
Stream size : 5.68 GiB (84%)
Title : Сукияки Вестерн Джанго / Сукіякі Вестерн Джанго / Sukiyaki Western Django (2007)
Writing library : x265 3.5+1-ce882936d:[Windows][GCC 10.2.0][64 bit] 10bit
Encoding settings : cpuid=1111039 / frame-threads=3 / numa-pools=12 / wpp / no-pmode / no-pme / no-psnr / no-ssim / log-level=2 / input-csp=1 / input-res=1920x820 / interlace=0 / total-frames=142019 / level-idc=41 / high-tier=1 / uhd-bd=0 / ref=5 / no-allow-non-conformance / no-repeat-headers / annexb / no-aud / no-hrd / info / hash=0 / no-temporal-layers / open-gop / min-keyint=23 / keyint=240 / gop-lookahead=0 / bframes=16 / b-adapt=2 / b-pyramid / bframe-bias=0 / rc-lookahead=60 / lookahead-slices=4 / scenecut=40 / hist-scenecut=0 / radl=0 / no-splice / no-intra-refresh / ctu=32 / min-cu-size=8 / rect / amp / max-tu-size=32 / tu-inter-depth=4 / tu-intra-depth=4 / limit-tu=1 / rdoq-level=2 / dynamic-rd=0.00 / no-ssim-rd / signhide / no-tskip / nr-intra=0 / nr-inter=0 / no-constrained-intra / no-strong-intra-smoothing / max-merge=5 / limit-refs=2 / limit-modes / me=3 / subme=7 / merange=57 / temporal-mvp / no-frame-dup / no-hme / weightp / weightb / no-analyze-src-pics / deblock=-3:-3 / no-sao / no-sao-non-deblock / rd=6 / selective-sao=0 / no-early-skip / no-rskip / no-fast-intra / no-tskip-fast / no-cu-lossless / no-b-intra / no-splitrd-skip / rdpenalty=0 / psy-rd=2.00 / psy-rdoq=1.00 / no-rd-refine / no-lossless / cbqpoffs=0 / crqpoffs=0 / rc=crf / crf=20.2 / qcomp=0.70 / qpstep=4 / stats-write=0 / stats-read=0 / vbv-maxrate=50000 / vbv-bufsize=50000 / vbv-init=0.9 / min-vbv-fullness=50.0 / max-vbv-fullness=80.0 / crf-max=0.0 / crf-min=0.0 / ipratio=1.40 / pbratio=1.30 / aq-mode=1 / aq-strength=1.00 / no-cutree / zone-count=0 / no-strict-cbr / qg-size=32 / no-rc-grain / qpmax=69 / qpmin=0 / no-const-vbv / sar=1 / overscan=0 / videoformat=5 / range=0 / colorprim=2 / transfer=2 / colormatrix=2 / chromaloc=0 / display-window=0 / cll=0,0 / min-luma=0 / max-luma=1023 / log2-max-poc-lsb=8 / vui-timing-info / vui-hrd-info / slices=1 / no-opt-qp-pps / no-opt-ref-list-length-pps / no-multi-pass-opt-rps / scenecut-bias=0.05 / hist-threshold=0.03 / no-opt-cu-delta-qp / no-aq-motion / no-hdr10 / no-hdr10-opt / no-dhdr10-opt / no-idr-recovery-sei / analysis-reuse-level=0 / analysis-save-reuse-level=0 / analysis-load-reuse-level=0 / scale-factor=0 / refine-intra=0 / refine-inter=0 / refine-mv=1 / refine-ctu-distortion=0 / no-limit-sao / ctu-info=0 / no-lowpass-dct / refine-analysis-type=0 / copy-pic=1 / max-ausize-factor=1.0 / no-dynamic-refine / no-single-sei / no-hevc-aq / no-svt / no-field / qp-adaptation-range=1.00 / scenecut-aware-qp=0conformance-window-offsets / right=0 / bottom=0 / decoder-max-rate=0 / no-vbv-live-multi-pass
Default : Yes
Forced : Yes

Audio #1
ID : 2
Format : AC-3
Format/Info : Audio Coding 3
Commercial name : Dolby Digital
Codec ID : A_AC3
Duration : 1 h 38 min
Bit rate mode : Constant
Bit rate : 448 kb/s
Channel(s) : 6 channels
Channel layout : L R C LFE Ls Rs
Sampling rate : 48.0 kHz
Frame rate : 31.250 FPS (1536 SPF)
Compression mode : Lossy
Stream size : 316 MiB (5%)
Title : AC-3 / 5.1 Ch / 448 kbps / DUB
Language : Russian
Service kind : Complete Main
Default : Yes
Forced : Yes

Audio #2
ID : 3
Format : AC-3
Format/Info : Audio Coding 3
Commercial name : Dolby Digital
Codec ID : A_AC3
Duration : 1 h 38 min
Bit rate mode : Constant
Bit rate : 448 kb/s
Channel(s) : 6 channels
Channel layout : L R C LFE Ls Rs
Sampling rate : 48.0 kHz
Frame rate : 31.250 FPS (1536 SPF)
Compression mode : Lossy
Stream size : 316 MiB (5%)
Title : AC-3 / 5.1 Ch / 448 kbps / MVO
Language : Ukrainian
Service kind : Complete Main
Default : No
Forced : No

Audio #3
ID : 4
Format : AC-3
Format/Info : Audio Coding 3
Commercial name : Dolby Digital
Codec ID : A_AC3
Duration : 1 h 38 min
Bit rate mode : Constant
Bit rate : 640 kb/s
Channel(s) : 6 channels
Channel layout : L R C LFE Ls Rs
Sampling rate : 48.0 kHz
Frame rate : 31.250 FPS (1536 SPF)
Compression mode : Lossy
Stream size : 451 MiB (7%)
Title : AC-3 / 5.1 Ch / 640 kbps / Original
Language : English
Service kind : Complete Main
Default : No
Forced : No

Text #1
ID : 5
Format : VobSub
Muxing mode : zlib
Codec ID : S_VOBSUB
Codec ID/Info : Picture based subtitle format used on DVDs
Duration : 1 h 34 min
Bit rate : 1 580 b/s
Count of elements : 472
Stream size : 1.06 MiB (0%)
Title : Full
Language : Russian
Default : No
Forced : No

Text #2
ID : 6
Format : UTF-8
Codec ID : S_TEXT/UTF8
Codec ID/Info : UTF-8 Plain Text
Duration : 1 h 36 min
Bit rate : 20 b/s
Count of elements : 628
Stream size : 14.1 KiB (0%)
Title : Full
Language : English
Default : No
Forced : No

Menu
00:00:00.000 : en:The Gunman
00:11:08.793 : en:Reds & Whites
00:20:59.591 : en:The Boy
00:30:27.158 : en:The Tougher Man
00:42:37.805 : en:The Arrival
00:52:10.210 : en:Stealing The Weapon
01:00:30.752 : en:Life is All About Goodbyes
01:07:07.273 : en:Healing
01:10:30.768 : en:Settle The Score
01:15:08.921 : en:Vengenance
01:27:20.485 : en:Final Showdown
01:35:18.003 : en:End Credits
Загрузка...Cкриншот1 Сукияки Вестерн Джанго / Sukiyaki Western Django (2007) [ITA Transfer, International Cut] BDRip 1080p [HEVC] 10 bit от -Star-Lord- (RG RIPS CLUB)Загрузка...Cкриншот2 Сукияки Вестерн Джанго / Sukiyaki Western Django (2007) [ITA Transfer, International Cut] BDRip 1080p [HEVC] 10 bit от -Star-Lord- (RG RIPS CLUB)Загрузка...Cкриншот3 Сукияки Вестерн Джанго / Sukiyaki Western Django (2007) [ITA Transfer, International Cut] BDRip 1080p [HEVC] 10 bit от -Star-Lord- (RG RIPS CLUB)Загрузка...Cкриншот4 Сукияки Вестерн Джанго / Sukiyaki Western Django (2007) [ITA Transfer, International Cut] BDRip 1080p [HEVC] 10 bit от -Star-Lord- (RG RIPS CLUB)
Поблагодарили: 9and50, Antilord90, davidoff_k4, ilyich05, IRIT, makss333, MIGRANT, Nuclear70, Rezident
Файлы: 1
  • Sukiyaki Western Django (2007) [ITA Transfer, International Cut] BDRip 1080p H.265 [RUS_UKR_ENG] [RIPS-CLUB].mkv

Рейтинги КП и IMDB, кнопки "Раздайте, пожалуйста" и "Спасибо", а также мультитрекерная статистика доступны только зарегистрированным/авторизованным пользователям!

StarLord
0124206.74 ГБ

💬︎ Комментарии

Добавление комментариев доступно только зарегистрированным/авторизованным пользователям.