💬 Мини-чат

OldGamerdonadar, нет, очень страшного кино не планировал 😀
donadarOldGamer, Спасибо за будущий Крик😀 А будет в планах "Очень страшное кино коллекция"?
AlexTwittСообщение удалено (удалил: AlexTwitt)
StarLordADVOKAT69, супер)
ADVOKAT69StarLord, хорошо!
StarLordADVOKAT69, привет)) как оно?)
Mr. Foxда, это не претензия и не предмет спора, это личное мнение, можно не развивать
Mr. FoxOldGamer, ну если честно, я в курсе, как по мне там даже на желтую не тянуло, но как говорится хозяин - барин
OldGamerMr. Fox, ничего нового или неожиданного, всё как и на других трекерах 😀 С - Стабильность.
Mr. FoxOldGamer, что ж такого NoMaD натворил, интересно
OldGamerПользователь NoMaD забанен навсегда
  • OldGamer
  • alexyak
  • FREAD
  • IRIT
Отправка сообщений доступна только зарегистрированным/авторизованным пользователям.
Онлайн (за 10 мин.): 4

Управление гневом / Anger Management (2003) BDRip 1080p [HEVC] 10 bit от OldGamer (RG RIPS CLUB)

HEVC
10 bit
Обложка Управление гневом / Anger Management (2003) BDRip 1080p [HEVC] 10 bit от OldGamer (RG RIPS CLUB) Год: 2003
Страна: США
Студия: Anger Management LLC, Happy Madison Productions, Jack Giarraputo Productions, Revolution Studios
Жанр: Мелодрама, Комедия
Продолжительность: 01:45:58

Режиссер: Питер Сигал
В ролях: Адам Сэндлер, Джек Николсон, Мариса Томей, Луис Гусман, Джонатан Лоугрэн, Курт Фуллер, Криста Аллен, Дженьюэри Джонс, Вуди Харрельсон, Хизер Грэм

Описание: Скромному клерку отчаянно не везёт. Парня по обвинению в нападении на бортпроводницу приговаривают к лечению у психиатра. Но верно говорят, что большинство психиатров сами немного безумны. Или сильно не в себе...


Исходник: Blu-Ray Remux 1080p (TeamHD)
Видео: 1920x800 (2.40:1), 11,5 Мбит/сек, HEVC (Main10@L.4.1@High)
Аудио1: AC3, 6 ch, 640 Kbps - РусскийРусский, Дублированный
Аудио2: AC3, 6 ch, 448 Kbps - УкраинскийУкраинский, Многоголосый (Tak Treba-INTER)
Аудио3: AC3, 6 ch, 640 Kbps - EnglishEnglish, Original
Субтитры: Отсутствуют

Как за пару секунд удалить ненужные аудиодорожки и субтитры (Внимание! После удаления вы не сможете поддержать раздачу)

Лог (x265 info)
x265 [info]: frame I: 638, Avg QP:18.62 kb/s: 23665.69
x265 [info]: frame P: 25671, Avg QP:19.80 kb/s: 19165.96
x265 [info]: frame B: 124793, Avg QP:21.89 kb/s: 9845.82
x265 [info]: Weighted P-Frames: Y:6.9% UV:5.4%
x265 [info]: Weighted B-Frames: Y:6.1% UV:4.3%
x265 [info]: consecutive B-frames: 1.0% 1.5% 3.1% 19.8% 11.8% 39.9% 8.6% 10.6% 1.7% 0.7% 0.3% 0.4% 0.2% 0.4%
x265 [info]: encoded 151102 frames in 239889.46s (0.63 fps), 11487.59 kb/s, Avg QP:21.52
Медиаинфо
Общее
Уникальный идентификатор : 22900899707360628079122283965263044727 (0x113A8D87938E043D114EA9FAFF96E077)
Полное имя : \\.\Управление.гневом.Anger.Management.2003.BDRip-HEVC.1080p.mkv
Формат : Matroska
Версия формата : Version 4
Размер файла : 9,70 Гбайт
Продолжительность : 1 ч. 45 м.
Общий поток : 13,2 Мбит/сек
Дата кодирования : UTC 2021-07-20 13:54:05
Программа кодирования : mkvmerge v58.0.0 ('Supper's Ready') 64-bit
Библиотека кодирования : libebml v1.4.2 + libmatroska v1.6.4

Видео
Идентификатор : 1
Формат : HEVC
Формат/Информация : High Efficiency Video Coding
Профиль формата : Main 10@L4.1@High
Идентификатор кодека : V_MPEGH/ISO/HEVC
Продолжительность : 1 ч. 45 м.
Битрейт : 11,5 Мбит/сек
Ширина : 1 920 пикселей
Высота : 800 пикселей
Соотношение сторон : 2,40:1
Режим частоты кадров : Постоянный
Частота кадров : 23,976 (24000/1001) кадра/сек
Цветовое пространство : YUV
Субдискретизация насыщенности : 4:2:0
Битовая глубина : 10 бит
Бит/(Пиксели*Кадры) : 0.312
Размер потока : 8,43 Гбайт (87%)
Заголовок : Anger Management / Rip by OldGamer
Библиотека кодирования : x265 3.5+9-bf91444e0:[Windows][GCC 10.2.1][64 bit] 10bit
Настройки программы : cpuid=1111039 / frame-threads=3 / numa-pools=12 / wpp / no-pmode / no-pme / no-psnr / no-ssim / log-level=2 / input-csp=1 / input-res=1920x800 / interlace=0 / total-frames=151102 / level-idc=41 / high-tier=1 / uhd-bd=0 / ref=5 / no-allow-non-conformance / no-repeat-headers / annexb / no-aud / no-eob / no-eos / no-hrd / info / hash=0 / no-temporal-layers / open-gop / min-keyint=23 / keyint=240 / gop-lookahead=0 / bframes=13 / b-adapt=2 / b-pyramid / bframe-bias=0 / rc-lookahead=40 / lookahead-slices=0 / scenecut=40 / hist-scenecut=0 / radl=0 / no-splice / no-intra-refresh / ctu=32 / min-cu-size=8 / rect / amp / max-tu-size=32 / tu-inter-depth=4 / tu-intra-depth=4 / limit-tu=1 / rdoq-level=2 / dynamic-rd=0.00 / no-ssim-rd / signhide / no-tskip / nr-intra=0 / nr-inter=0 / no-constrained-intra / no-strong-intra-smoothing / max-merge=5 / limit-refs=3 / no-limit-modes / me=3 / subme=7 / merange=57 / temporal-mvp / no-frame-dup / no-hme / weightp / weightb / no-analyze-src-pics / deblock=-3:-3 / no-sao / no-sao-non-deblock / rd=6 / selective-sao=0 / no-early-skip / rskip / no-fast-intra / no-tskip-fast / no-cu-lossless / b-intra / no-splitrd-skip / rdpenalty=0 / psy-rd=2.00 / psy-rdoq=1.00 / no-rd-refine / no-lossless / cbqpoffs=0 / crqpoffs=0 / rc=crf / crf=18.8 / qcomp=0.60 / qpstep=4 / stats-write=0 / stats-read=0 / vbv-maxrate=50000 / vbv-bufsize=50000 / vbv-init=0.9 / min-vbv-fullness=50.0 / max-vbv-fullness=80.0 / crf-max=0.0 / crf-min=0.0 / ipratio=1.40 / pbratio=1.30 / aq-mode=1 / aq-strength=1.00 / no-cutree / zone-count=1 / zones: / start-frame=139956 / end-frame=151102 / qp=36 / no-strict-cbr / qg-size=32 / no-rc-grain / qpmax=69 / qpmin=0 / no-const-vbv / sar=1 / overscan=0 / videoformat=5 / range=0 / colorprim=2 / transfer=2 / colormatrix=2 / chromaloc=0 / display-window=0 / cll=0,0 / min-luma=0 / max-luma=1023 / log2-max-poc-lsb=8 / vui-timing-info / vui-hrd-info / slices=1 / no-opt-qp-pps / no-opt-ref-list-length-pps / no-multi-pass-opt-rps / scenecut-bias=0.00 / hist-threshold=0.03 / no-opt-cu-delta-qp / no-aq-motion / no-hdr10 / no-hdr10-opt / no-dhdr10-opt / no-idr-recovery-sei / analysis-reuse-level=0 / analysis-save-reuse-level=0 / analysis-load-reuse-level=0 / scale-factor=0 / refine-intra=0 / refine-inter=0 / refine-mv=1 / refine-ctu-distortion=0 / no-limit-sao / ctu-info=0 / no-lowpass-dct / refine-analysis-type=0 / copy-pic=1 / max-ausize-factor=1.0 / no-dynamic-refine / no-single-sei / no-hevc-aq / no-svt / no-field / qp-adaptation-range=1.00 / scenecut-aware-qp=0conformance-window-offsets / right=0 / bottom=0 / decoder-max-rate=0 / no-vbv-live-multi-pass
Язык : English
Default : Да
Forced : Нет

Аудио #1
Идентификатор : 2
Формат : AC-3
Формат/Информация : Audio Coding 3
Коммерческое название : Dolby Digital
Идентификатор кодека : A_AC3
Продолжительность : 1 ч. 45 м.
Вид битрейта : Постоянный
Битрейт : 640 Кбит/сек
Каналы : 6 каналов
Channel layout : L R C LFE Ls Rs
Частота : 48,0 КГц
Частота кадров : 31,250 кадров/сек (1536 SPF)
Метод сжатия : С потерями
Размер потока : 481 Мбайт (5%)
Заголовок : DUB
Язык : Russian
Service kind : Complete Main
Default : Да
Forced : Нет

Аудио #2
Идентификатор : 3
Формат : AC-3
Формат/Информация : Audio Coding 3
Коммерческое название : Dolby Digital
Идентификатор кодека : A_AC3
Продолжительность : 1 ч. 45 м.
Вид битрейта : Постоянный
Битрейт : 448 Кбит/сек
Каналы : 6 каналов
Channel layout : L R C LFE Ls Rs
Частота : 48,0 КГц
Частота кадров : 31,250 кадров/сек (1536 SPF)
Метод сжатия : С потерями
Размер потока : 337 Мбайт (3%)
Заголовок : MVO (Tak Treba-INTER)
Язык : Ukrainian
Service kind : Complete Main
Default : Нет
Forced : Нет

Аудио #3
Идентификатор : 4
Формат : AC-3
Формат/Информация : Audio Coding 3
Коммерческое название : Dolby Digital
Идентификатор кодека : A_AC3
Продолжительность : 1 ч. 45 м.
Вид битрейта : Постоянный
Битрейт : 640 Кбит/сек
Каналы : 6 каналов
Channel layout : L R C LFE Ls Rs
Частота : 48,0 КГц
Частота кадров : 31,250 кадров/сек (1536 SPF)
Метод сжатия : С потерями
Размер потока : 481 Мбайт (5%)
Язык : English
Service kind : Complete Main
Default : Нет
Forced : Нет

Меню
00:00:00.000 : Start
00:05:04.053 : Dave Buznik
00:09:59.515 : This Seat's Available
00:16:54.722 : The in-Flight Movie Incident
00:22:25.719 : Dr. Buddy Rydell
00:29:28.975 : The First Session
00:36:20.595 : Dave & Chuck, Anger Allies
00:42:22.039 : Andrew
00:47:57.833 : Tsouris
00:52:36.444 : Buddy for the Defense
00:58:05.440 : In the Lair of the Rage Rhino
01:04:42.587 : Bunkmates
01:16:01.056 : Breakfast with Buddy
01:20:44.798 : I Feel Pretty
01:27:36.376 : Frank Head
01:35:07.076 : Clothes for Fat Cats
Загрузка...Cкриншот1 Управление гневом / Anger Management (2003) BDRip 1080p [HEVC] 10 bit от OldGamer (RG RIPS CLUB)Загрузка...Cкриншот2 Управление гневом / Anger Management (2003) BDRip 1080p [HEVC] 10 bit от OldGamer (RG RIPS CLUB)Загрузка...Cкриншот3 Управление гневом / Anger Management (2003) BDRip 1080p [HEVC] 10 bit от OldGamer (RG RIPS CLUB)Загрузка...Cкриншот4 Управление гневом / Anger Management (2003) BDRip 1080p [HEVC] 10 bit от OldGamer (RG RIPS CLUB)
Релиз-группа: RIPS CLUB
Сэмпл Торрент🧲 Магнет

Раздача обновлена!
Удалены дефектные дорожки и субтитры.

Рейтинги КП и IMDB, кнопки "Позвать в чате" и "Спасибо", а также мультитрекерная статистика доступны только зарегистрированным/авторизованным пользователям!

Файлы: 1
  • Управление.гневом.Anger.Management.2003.BDRip-HEVC.1080p.mkv   9.7 ГБ
Поблагодарили: 7
and50, FREAD, Giggalo, IRIT, makss333, Nuclear70, TaurohtaR
OldGamer
054929.7 ГБ

Добавление нового комментария

Добавление комментариев доступно только зарегистрированным/авторизованным пользователям.