💬 Мини-чат

OldGamerНасколько я помню, даже мой первый стик 2014 года тянул hevc, хотя и подтупливал на перемотке
OldGamerВыбирайте по цене и отзывам.
OldGamerСообщение удалено (удалил: OldGamer)
OldGamerЛюбой, всё что выпускалось за последние 3 года, вполне тянет hevc. Чуть раньше в чате ссылку давал на обсуждения на 4пда.
SAHA55Подскажите,пожалуйста какой купить медио плеер для просмотра видео в HEVC x265 с переносного жёсткого на 1 Тб. TV старый Panasonic
  • OldGamer
  • ADVOKAT69
  • AlexTwitt
  • Chestnoc
  • Nuclear70
  • uzas1985
Отправка сообщений доступна только зарегистрированным/авторизованным пользователям.
Онлайн (за 10 мин.): 6

Пила: Спираль / Spiral: From the Book of Saw (2021) BDRip 1080p [HEVC] 10 bit от -Star-Lord- (RG RIPS CLUB)

HEVC
10 bit
Обложка Пила: Спираль / Spiral: From the Book of Saw (2021) BDRip 1080p [HEVC] 10 bit от -Star-Lord- (RG RIPS CLUB) Год: 2021
Страна: Канада, США
Студия: Lionsgate, Twisted pictures
Жанр: Детектив, Триллер, Ужасы
Продолжительность: 01:33:06

Режиссер: Даррен Линн Боусман
В ролях: Крис Рок, Макс Мингелла, Марисоль Николс, Сэмюэл Л. Джексон, Зои Палмер, Дженелл Уильямс, Ричард Зэппери, Дэн Петрониевич, Патрик МакМанус, Али Джонсон и др.

Описание: Импульсивный детектив полиции Зик Бэнкс всю жизнь пытается вырваться из тени своего отца, прославленного ветерана правоохранительных органов. Однажды Бэнксу и его новому напарнику поручают расследование серии жестоких убийств, которые странным образом напоминают преступления прошлых лет. Так они оказываются в эпицентре зловещей игры, и цена проигрыша в ней — человеческая жизнь....


Видео: 1920x806, ~5664 Кбит/сек
Аудио1: AC3, 6 ch, 448 Kbps - РусскийРусский, Дублированный (СинеЛаб СаундМикс)
Аудио2: AC3, 6 ch, 448 Kbps - РусскийРусский, Профессиональный многоголосый закадровый (HDRezka Studio)
Аудио3: AC3, 6 ch, 448 Kbps - РусскийРусский, Профессиональный многоголосый закадровый (HDRezka Studio 18+)
Аудио4: AC3, 6 ch, 448 Kbps - РусскийРусский, Профессиональный двухголосый закадровый (Pazl Voice)
Аудио5: AC3, 6 ch, 448 Kbps - РусскийРусский, Авторский одноголосый (В. Котов)
Аудио6: AC3, 2 ch, 192 Kbps - УкраинскийУкраинский, Дублированный (Line)
Аудио7: AC3, 6 ch, 384 Kbps - УкраинскийУкраинский, Профессиональный многоголосый закадровый (HDRezka Studio)
Аудио8: AC3, 6 ch, 640 Kbps - АнглийскийАнглийский, Оригинал
Аудио9: AC3, 2 ch, 192 Kbps - АнглийскийАнглийский, Commentary by Darren Lynn Bousman/Josh Stolberg/Charlie Clouser
Аудио10: AC3, 2 ch, 192 Kbps - АнглийскийАнглийский, Commentary by Oren Koules/Mark Burg
Субтитры: русские (форс., полные), украинские (форс., полные), английские (полные, SDH)

Как за пару секунд удалить ненужные аудиодорожки и субтитры (Внимание! После удаления вы не сможете поддержать раздачу)

Лог (x265 info)
x265 [info]: frame I: 1586, Avg QP:16.20 kb/s: 16657.36
x265 [info]: frame P: 24294, Avg QP:17.42 kb/s: 9819.90
x265 [info]: frame B: 108065, Avg QP:19.76 kb/s: 4568.45
x265 [info]: Weighted P-Frames: Y:6.0% UV:5.0%
x265 [info]: Weighted B-Frames: Y:5.1% UV:3.8%
x265 [info]: consecutive B-frames: 10.1% 5.6% 7.1% 25.9% 12.1% 16.3% 5.2% 7.0% 3.0% 2.3% 1.3% 1.3% 0.9% 0.6% 0.4% 0.4% 0.5%

encoded 133945 frames in 125689.38s (1.07 fps), 5664.06 kb/s, Avg QP:19.30
Медиаинфо
General
Unique ID : 136809731997313939298069286041324090593 (0x66EC98906C51B1D4A53FC3EE294BF4E1)
Complete name : Spiral. From the Book of Saw (2021) BDRip 1080p H.265 [4xRUS_2xUKR_ENG] [RIPS-CLUB].mkv
Format : Matroska
Format version : Version 4
File size : 6.14 GiB
Duration : 1 h 33 min
Overall bit rate : 9 446 kb/s
Movie name : Пила: Спираль / Пила: Спіраль / Spiral: From the Book of Saw (2021)
Encoded date : UTC 2021-08-24 09:52:57
Writing application : mkvmerge v20.0.0 ('I Am The Sun') 64-bit
Writing library : libebml v1.3.5 + libmatroska v1.4.8
Cover : Yes
Attachments : Cover.jpg

Video
ID : 1
Format : HEVC
Format/Info : High Efficiency Video Coding
Format profile : Main 10@L4.1@High
Codec ID : V_MPEGH/ISO/HEVC
Duration : 1 h 33 min
Bit rate : 5 665 kb/s
Width : 1 920 pixels
Height : 806 pixels
Display aspect ratio : 2.40:1
Frame rate mode : Constant
Frame rate : 23.976 (24000/1001) FPS
Color space : YUV
Chroma subsampling : 4:2:0
Bit depth : 10 bits
Bits/(Pixel*Frame) : 0.153
Stream size : 3.68 GiB (60%)
Title : Пила: Спираль / Пила: Спіраль / Spiral: From the Book of Saw (2021)
Writing library : x265 3.5+1-ce882936d:[Windows][GCC 10.2.0][64 bit] 10bit
Encoding settings : cpuid=1111039 / frame-threads=3 / numa-pools=12 / wpp / no-pmode / no-pme / no-psnr / no-ssim / log-level=2 / input-csp=1 / input-res=1920x806 / interlace=0 / total-frames=133945 / level-idc=41 / high-tier=1 / uhd-bd=0 / ref=5 / no-allow-non-conformance / no-repeat-headers / annexb / no-aud / no-hrd / info / hash=0 / no-temporal-layers / open-gop / min-keyint=23 / keyint=240 / gop-lookahead=0 / bframes=16 / b-adapt=2 / b-pyramid / bframe-bias=0 / rc-lookahead=60 / lookahead-slices=4 / scenecut=40 / hist-scenecut=0 / radl=0 / no-splice / no-intra-refresh / ctu=32 / min-cu-size=8 / rect / amp / max-tu-size=32 / tu-inter-depth=4 / tu-intra-depth=4 / limit-tu=1 / rdoq-level=2 / dynamic-rd=0.00 / no-ssim-rd / signhide / no-tskip / nr-intra=0 / nr-inter=0 / no-constrained-intra / no-strong-intra-smoothing / max-merge=5 / limit-refs=2 / limit-modes / me=3 / subme=7 / merange=57 / temporal-mvp / no-frame-dup / no-hme / weightp / weightb / no-analyze-src-pics / deblock=-3:-3 / no-sao / no-sao-non-deblock / rd=6 / selective-sao=0 / no-early-skip / no-rskip / no-fast-intra / no-tskip-fast / no-cu-lossless / no-b-intra / no-splitrd-skip / rdpenalty=0 / psy-rd=2.00 / psy-rdoq=1.00 / no-rd-refine / no-lossless / cbqpoffs=0 / crqpoffs=0 / rc=crf / crf=20.5 / qcomp=0.65 / qpstep=4 / stats-write=0 / stats-read=0 / vbv-maxrate=50000 / vbv-bufsize=50000 / vbv-init=0.9 / min-vbv-fullness=50.0 / max-vbv-fullness=80.0 / crf-max=0.0 / crf-min=0.0 / ipratio=1.40 / pbratio=1.30 / aq-mode=1 / aq-strength=1.00 / no-cutree / zone-count=0 / no-strict-cbr / qg-size=32 / no-rc-grain / qpmax=69 / qpmin=0 / no-const-vbv / sar=1 / overscan=0 / videoformat=5 / range=0 / colorprim=2 / transfer=2 / colormatrix=2 / chromaloc=0 / display-window=0 / cll=0,0 / min-luma=0 / max-luma=1023 / log2-max-poc-lsb=8 / vui-timing-info / vui-hrd-info / slices=1 / no-opt-qp-pps / no-opt-ref-list-length-pps / no-multi-pass-opt-rps / scenecut-bias=0.05 / hist-threshold=0.03 / no-opt-cu-delta-qp / no-aq-motion / no-hdr10 / no-hdr10-opt / no-dhdr10-opt / no-idr-recovery-sei / analysis-reuse-level=0 / analysis-save-reuse-level=0 / analysis-load-reuse-level=0 / scale-factor=0 / refine-intra=0 / refine-inter=0 / refine-mv=1 / refine-ctu-distortion=0 / no-limit-sao / ctu-info=0 / no-lowpass-dct / refine-analysis-type=0 / copy-pic=1 / max-ausize-factor=1.0 / no-dynamic-refine / no-single-sei / no-hevc-aq / no-svt / no-field / qp-adaptation-range=1.00 / scenecut-aware-qp=0conformance-window-offsets / right=0 / bottom=0 / decoder-max-rate=0 / no-vbv-live-multi-pass
Language : English
Default : Yes
Forced : Yes

Audio #1
ID : 2
Format : AC-3
Format/Info : Audio Coding 3
Commercial name : Dolby Digital
Codec ID : A_AC3
Duration : 1 h 33 min
Bit rate mode : Constant
Bit rate : 448 kb/s
Channel(s) : 6 channels
Channel layout : L R C LFE Ls Rs
Sampling rate : 48.0 kHz
Frame rate : 31.250 FPS (1536 SPF)
Compression mode : Lossy
Stream size : 298 MiB (5%)
Title : AC-3 / 5.1 Ch / 448 kbps / DUB / СинеЛаб СаундМикс
Language : Russian
Service kind : Complete Main
Default : Yes
Forced : Yes

Audio #2
ID : 3
Format : AC-3
Format/Info : Audio Coding 3
Commercial name : Dolby Digital
Codec ID : A_AC3
Duration : 1 h 33 min
Bit rate mode : Constant
Bit rate : 448 kb/s
Channel(s) : 6 channels
Channel layout : L R C LFE Ls Rs
Sampling rate : 48.0 kHz
Frame rate : 31.250 FPS (1536 SPF)
Compression mode : Lossy
Stream size : 298 MiB (5%)
Title : AC-3 / 5.1 Ch / 448 kbps / MVO / HDRezka Studio
Language : Russian
Service kind : Complete Main
Default : No
Forced : No

Audio #3
ID : 4
Format : AC-3
Format/Info : Audio Coding 3
Commercial name : Dolby Digital
Codec ID : A_AC3
Duration : 1 h 33 min
Bit rate mode : Constant
Bit rate : 448 kb/s
Channel(s) : 6 channels
Channel layout : L R C LFE Ls Rs
Sampling rate : 48.0 kHz
Frame rate : 31.250 FPS (1536 SPF)
Compression mode : Lossy
Stream size : 298 MiB (5%)
Title : AC-3 / 5.1 Ch / 448 kbps / MVO / HDRezka Studio 18+
Language : Russian
Service kind : Complete Main
Default : No
Forced : No

Audio #4
ID : 5
Format : AC-3
Format/Info : Audio Coding 3
Commercial name : Dolby Digital
Codec ID : A_AC3
Duration : 1 h 33 min
Bit rate mode : Constant
Bit rate : 448 kb/s
Channel(s) : 6 channels
Channel layout : L R C LFE Ls Rs
Sampling rate : 48.0 kHz
Frame rate : 31.250 FPS (1536 SPF)
Compression mode : Lossy
Stream size : 298 MiB (5%)
Title : AC-3 / 5.1 Ch / 448 kbps / DVO / Pazl Voice
Language : Russian
Service kind : Complete Main
Default : No
Forced : No

Audio #5
ID : 6
Format : AC-3
Format/Info : Audio Coding 3
Commercial name : Dolby Digital
Codec ID : A_AC3
Duration : 1 h 33 min
Bit rate mode : Constant
Bit rate : 384 kb/s
Channel(s) : 6 channels
Channel layout : L R C LFE Ls Rs
Sampling rate : 48.0 kHz
Frame rate : 31.250 FPS (1536 SPF)
Compression mode : Lossy
Stream size : 256 MiB (4%)
Title : AC-3 / 5.1 Ch / 448 kbps / AVO / В. Котов
Language : Russian
Service kind : Complete Main
Default : No
Forced : No

Audio #6
ID : 7
Format : AC-3
Format/Info : Audio Coding 3
Commercial name : Dolby Digital
Codec ID : A_AC3
Duration : 1 h 33 min
Bit rate mode : Constant
Bit rate : 192 kb/s
Channel(s) : 2 channels
Channel layout : L R
Sampling rate : 48.0 kHz
Frame rate : 31.250 FPS (1536 SPF)
Compression mode : Lossy
Stream size : 128 MiB (2%)
Title : AC-3 / 2.0 Ch / 192 kbps / DUB / Line
Language : Ukrainian
Service kind : Complete Main
Default : No
Forced : No

Audio #7
ID : 8
Format : AC-3
Format/Info : Audio Coding 3
Commercial name : Dolby Digital
Codec ID : A_AC3
Duration : 1 h 33 min
Bit rate mode : Constant
Bit rate : 384 kb/s
Channel(s) : 6 channels
Channel layout : L R C LFE Ls Rs
Sampling rate : 48.0 kHz
Frame rate : 31.250 FPS (1536 SPF)
Compression mode : Lossy
Stream size : 256 MiB (4%)
Title : AC-3 / 5.1 Ch / 384 kbps / MVO / HDRezka Studio
Language : Ukrainian
Service kind : Complete Main
Default : No
Forced : No

Audio #8
ID : 9
Format : AC-3
Format/Info : Audio Coding 3
Commercial name : Dolby Digital
Codec ID : A_AC3
Duration : 1 h 33 min
Bit rate mode : Constant
Bit rate : 640 kb/s
Channel(s) : 6 channels
Channel layout : L R C LFE Ls Rs
Sampling rate : 48.0 kHz
Frame rate : 31.250 FPS (1536 SPF)
Compression mode : Lossy
Stream size : 426 MiB (7%)
Title : AC-3 / 5.1 Ch / 640 kbps / Original
Language : English
Service kind : Complete Main
Default : No
Forced : No

Audio #9
ID : 10
Format : AC-3
Format/Info : Audio Coding 3
Commercial name : Dolby Digital
Codec ID : A_AC3
Duration : 1 h 33 min
Bit rate mode : Constant
Bit rate : 192 kb/s
Channel(s) : 2 channels
Channel layout : L R
Sampling rate : 48.0 kHz
Frame rate : 31.250 FPS (1536 SPF)
Compression mode : Lossy
Stream size : 128 MiB (2%)
Title : Commentary by Darren Lynn Bousman/Josh Stolberg/Charlie Clouser
Language : English
Service kind : Complete Main
Default : No
Forced : No

Audio #10
ID : 11
Format : AC-3
Format/Info : Audio Coding 3
Commercial name : Dolby Digital
Codec ID : A_AC3
Duration : 1 h 33 min
Bit rate mode : Constant
Bit rate : 192 kb/s
Channel(s) : 2 channels
Channel layout : L R
Sampling rate : 48.0 kHz
Frame rate : 31.250 FPS (1536 SPF)
Compression mode : Lossy
Stream size : 128 MiB (2%)
Title : Commentary by Oren Koules/Mark Burg
Language : English
Service kind : Complete Main
Default : No
Forced : No

Text #1
ID : 12
Format : UTF-8
Codec ID : S_TEXT/UTF8
Codec ID/Info : UTF-8 Plain Text
Duration : 1 h 17 min
Bit rate : 3 b/s
Count of elements : 40
Stream size : 1.85 KiB (0%)
Title : Forced
Language : Russian
Default : Yes
Forced : Yes

Text #2
ID : 13
Format : UTF-8
Codec ID : S_TEXT/UTF8
Codec ID/Info : UTF-8 Plain Text
Duration : 1 h 25 min
Bit rate : 99 b/s
Count of elements : 1260
Stream size : 62.2 KiB (0%)
Title : Full
Language : Russian
Default : No
Forced : No

Text #3
ID : 14
Format : UTF-8
Codec ID : S_TEXT/UTF8
Codec ID/Info : UTF-8 Plain Text
Duration : 41 min 33 s
Bit rate : 1 b/s
Count of elements : 6
Stream size : 368 Bytes (0%)
Title : Forced
Language : Ukrainian
Default : No
Forced : No

Text #4
ID : 15
Format : UTF-8
Codec ID : S_TEXT/UTF8
Codec ID/Info : UTF-8 Plain Text
Duration : 1 h 25 min
Bit rate : 98 b/s
Count of elements : 1258
Stream size : 61.7 KiB (0%)
Title : Full
Language : Ukrainian
Default : No
Forced : No

Text #5
ID : 16
Format : UTF-8
Codec ID : S_TEXT/UTF8
Codec ID/Info : UTF-8 Plain Text
Duration : 1 h 25 min
Bit rate : 60 b/s
Count of elements : 1152
Stream size : 38.0 KiB (0%)
Title : Full
Language : English
Default : No
Forced : No

Text #6
ID : 17
Format : UTF-8
Codec ID : S_TEXT/UTF8
Codec ID/Info : UTF-8 Plain Text
Duration : 1 h 26 min
Bit rate : 69 b/s
Count of elements : 1343
Stream size : 44.0 KiB (0%)
Title : SDH
Language : English
Default : No
Forced : No

Menu
00:00:00.000 : Chapter 01
00:05:45.428 : Chapter 02
00:11:25.476 : Chapter 03
00:16:56.599 : Chapter 04
00:23:20.190 : Chapter 05
00:27:47.416 : Chapter 06
00:34:08.213 : Chapter 07
00:38:44.656 : Chapter 08
00:45:15.171 : Chapter 09
00:49:44.315 : Chapter 10
00:55:25.489 : Chapter 11
00:59:14.217 : Chapter 12
01:06:47.295 : Chapter 13
01:09:19.072 : Chapter 14
01:15:18.723 : Chapter 15
01:20:22.818 : Chapter 16
Загрузка...Cкриншот1 Пила: Спираль / Spiral: From the Book of Saw (2021) BDRip 1080p [HEVC] 10 bit от -Star-Lord- (RG RIPS CLUB)Загрузка...Cкриншот2 Пила: Спираль / Spiral: From the Book of Saw (2021) BDRip 1080p [HEVC] 10 bit от -Star-Lord- (RG RIPS CLUB)Загрузка...Cкриншот3 Пила: Спираль / Spiral: From the Book of Saw (2021) BDRip 1080p [HEVC] 10 bit от -Star-Lord- (RG RIPS CLUB)Загрузка...Cкриншот4 Пила: Спираль / Spiral: From the Book of Saw (2021) BDRip 1080p [HEVC] 10 bit от -Star-Lord- (RG RIPS CLUB)
Релиз-группа: RIPS CLUB
Сэмпл Торрент🧲 Магнет

Рейтинги КП и IMDB, кнопки "Позвать в чате" и "Спасибо", а также мультитрекерная статистика доступны только зарегистрированным/авторизованным пользователям!

Файлы: 1
  • Spiral. From the Book of Saw (2021) BDRip 1080p H.265 [4xRUS_2xUKR_ENG] [RIPS-CLUB].mkv   6.14 ГБ
Поблагодарили: 7
alexyak, and50, donadar, ivan_1965, Kiran, makss333, Rezident
StarLord
02023746.14 ГБ

Добавление нового комментария

Добавление комментариев доступно только зарегистрированным/авторизованным пользователям.