💬 Мини-чат

OldGamerНасколько я помню, даже мой первый стик 2014 года тянул hevc, хотя и подтупливал на перемотке
OldGamerВыбирайте по цене и отзывам.
OldGamerСообщение удалено (удалил: OldGamer)
OldGamerЛюбой, всё что выпускалось за последние 3 года, вполне тянет hevc. Чуть раньше в чате ссылку давал на обсуждения на 4пда.
SAHA55Подскажите,пожалуйста какой купить медио плеер для просмотра видео в HEVC x265 с переносного жёсткого на 1 Тб. TV старый Panasonic
  • abtr
  • Brooklyn
  • Krem_OFF
Отправка сообщений доступна только зарегистрированным/авторизованным пользователям.
Онлайн (за 10 мин.): 3

Я всё еще знаю, что вы сделали прошлым летом / I Still Know What You Did Last Summer (1998) BDRip 1080p [HEVC] 10 bit от OldGamer (RG RIPS CLUB)

HEVC
10 bit
Обложка Я всё еще знаю, что вы сделали прошлым летом / I Still Know What You Did Last Summer (1998) BDRip 1080p [HEVC] 10 bit от OldGamer (RG RIPS CLUB) Год: 1998
Страна: США, Мексика
Студия: Columbia Pictures Corporation, Estudios Churubusco Azteca S.A., Mandalay Entertainment, Original Film, Summer Knowledge LLC
Жанр: Ужасы, Триллер, Детектив
Продолжительность: 01:40:33

Режиссер: Дэнни Кэннон
В ролях: Дженнифер Лав Хьюитт, Брэнди Норвуд, Мекхай Файфер, Мэттью Сеттл, Мьюз Уотсон, Фредди Принц мл., Билл Коббс, Джеффри Комбс, Дженнифер Эспозито, Джон Хоукс

Описание: Джули Джеймс так и не смогла пережить ужас прошлого лета. Хотя жестокий маньяк был убит, его тело не было найдено. Тень мрачного мстителя продолжает преследовать девушку в кошмарных видениях. Чтобы избавиться от страшных воспоминаний, Джули с друзьями отправляется на живописный тропический остров. Они надеются провести здесь несколько прекрасных дней, но... Райский уголок оказывается настоящим адом. Надвигается шторм, и последний катер с туристами уже отчалил от берега. Опустевшая сцена готова для кровавого спектакля. За туманной пеленой дождя Джули снова увидела зловещую фигуру того, кто ВСЁ ЕЩЁ ЗНАЕТ, ЧТО ОНА СДЕЛАЛА ПРОШЛЫМ ЛЕТОМ.


Исходник: Blu-Ray Remux 1080p (TeamHD)
Видео: 1920x800 (2.40:1), 6499 Кбит/сек, HEVC (Main10@L.4.1@High)
Аудио1: AC3, 6 ch, 640 Kbps - РусскийРусский, DUB (Sony Pictures / BD CEE)
Аудио2: AC3, 2 ch, 192 Kbps - РусскийРусский, DVO (Ren-TV)
Аудио3: AC3, 2 ch, 192 Kbps - РусскийРусский, DVO (SDI-Media Латвия)
Аудио4: AC3, 6 ch, 640 Kbps - РусскийРусский, AVO (Юрий Живов)
Аудио5: AC3, 2 ch, 192 Kbps - РусскийРусский, AVO (Николай Антонов)
Аудио6: AC3, 2 ch, 192 Kbps - УкраинскийУкраинский, MVO (ТК Украiна)
Аудио7: AC3, 2 ch, 192 Kbps - УкраинскийУкраинский, MVO (ICTV)
Аудио8: AC3, 6 ch, 640 Kbps - EnglishEnglish, Original
Субтитры: Русские полные (SRT), English full (SRT)

Как за пару секунд удалить ненужные аудиодорожки и субтитры (Внимание! После удаления вы не сможете поддержать раздачу)

Лог (x265 info)
x265 [info]: frame I: 611, Avg QP:17.29 kb/s: 13373.53
x265 [info]: frame P: 27046, Avg QP:18.49 kb/s: 10473.00
x265 [info]: frame B: 117014, Avg QP:20.61 kb/s: 5542.92
x265 [info]: Weighted P-Frames: Y:16.5% UV:14.0%
x265 [info]: Weighted B-Frames: Y:20.0% UV:15.0%
x265 [info]: consecutive B-frames: 8.3% 4.9% 7.2% 21.6% 11.9% 25.3% 6.9% 5.1% 3.0% 1.7% 1.2% 1.7% 0.5% 0.3% 0.3% 0.1% 0.2%
x265 [info]: encoded 144671 frames in 94320.62s (1.53 fps), 6497.66 kb/s, Avg QP:20.20
Медиаинфо
Общее
Уникальный идентификатор : 97704599665127801694479730392252529548 (0x498138AEFA38C1F4C10F732AA4E3BB8C)
Полное имя : \\.\02.Я.всё.еще.знаю.что.вы.сделали.прошлым.летом.I.Still.Know.What.You.Did.Last.Summer.1998.BDRip-HEVC.1080p.mkv
Формат : Matroska
Версия формата : Version 4
Размер файла : 6,59 Гбайт
Продолжительность : 1 ч. 40 м.
Общий поток : 9 382 Кбит/сек
Название фильма : 02.Я.всё.еще.знаю.что.вы.сделали.прошлым.летом.I.Still.Know.What.You.Did.Last.Summer.1998.BDRip-HEVC.1080p
Дата кодирования : UTC 2021-09-01 01:26:40
Программа кодирования : mkvmerge v61.0.0 ('So') 64-bit
Библиотека кодирования : libebml v1.4.2 + libmatroska v1.6.4

Видео
Идентификатор : 1
Формат : HEVC
Формат/Информация : High Efficiency Video Coding
Профиль формата : Main 10@L4.1@High
Идентификатор кодека : V_MPEGH/ISO/HEVC
Продолжительность : 1 ч. 40 м.
Битрейт : 6 499 Кбит/сек
Ширина : 1 920 пикселей
Высота : 800 пикселей
Соотношение сторон : 2,40:1
Режим частоты кадров : Постоянный
Частота кадров : 23,976 (24000/1001) кадра/сек
Цветовое пространство : YUV
Субдискретизация насыщенности : 4:2:0
Битовая глубина : 10 бит
Бит/(Пиксели*Кадры) : 0.176
Размер потока : 4,56 Гбайт (69%)
Заголовок : I Still Know What You Did Last Summer / Rip by OldGamer
Библиотека кодирования : x265 3.5+13-4c6880de4:[Windows][GCC 11.2.0][64 bit] 10bit
Настройки программы : cpuid=1111039 / frame-threads=3 / numa-pools=8 / wpp / no-pmode / no-pme / no-psnr / no-ssim / log-level=2 / input-csp=1 / input-res=1920x800 / interlace=0 / total-frames=144671 / level-idc=41 / high-tier=1 / uhd-bd=0 / ref=5 / no-allow-non-conformance / no-repeat-headers / annexb / no-aud / no-eob / no-eos / no-hrd / info / hash=0 / no-temporal-layers / open-gop / min-keyint=23 / keyint=240 / gop-lookahead=0 / bframes=16 / b-adapt=2 / b-pyramid / bframe-bias=0 / rc-lookahead=40 / lookahead-slices=0 / scenecut=40 / no-hist-scenecut / radl=0 / no-splice / no-intra-refresh / ctu=32 / min-cu-size=8 / rect / amp / max-tu-size=32 / tu-inter-depth=4 / tu-intra-depth=4 / limit-tu=1 / rdoq-level=2 / dynamic-rd=0.00 / no-ssim-rd / signhide / no-tskip / nr-intra=0 / nr-inter=0 / no-constrained-intra / no-strong-intra-smoothing / max-merge=5 / limit-refs=3 / no-limit-modes / me=3 / subme=7 / merange=57 / temporal-mvp / no-frame-dup / no-hme / weightp / weightb / no-analyze-src-pics / deblock=-3:-3 / no-sao / no-sao-non-deblock / rd=6 / selective-sao=0 / no-early-skip / no-rskip / no-fast-intra / no-tskip-fast / no-cu-lossless / b-intra / no-splitrd-skip / rdpenalty=0 / psy-rd=2.00 / psy-rdoq=1.00 / no-rd-refine / no-lossless / cbqpoffs=0 / crqpoffs=0 / rc=crf / crf=20.4 / qcomp=0.60 / qpstep=4 / stats-write=0 / stats-read=0 / vbv-maxrate=50000 / vbv-bufsize=50000 / vbv-init=0.9 / min-vbv-fullness=50.0 / max-vbv-fullness=80.0 / crf-max=0.0 / crf-min=0.0 / ipratio=1.40 / pbratio=1.30 / aq-mode=1 / aq-strength=1.00 / no-cutree / zone-count=1 / zones: / start-frame=137679 / end-frame=144671 / qp=36 / no-strict-cbr / qg-size=32 / no-rc-grain / qpmax=69 / qpmin=0 / no-const-vbv / sar=1 / overscan=0 / videoformat=5 / range=0 / colorprim=2 / transfer=2 / colormatrix=2 / chromaloc=0 / display-window=0 / cll=0,0 / min-luma=0 / max-luma=1023 / log2-max-poc-lsb=8 / vui-timing-info / vui-hrd-info / slices=1 / no-opt-qp-pps / no-opt-ref-list-length-pps / no-multi-pass-opt-rps / scenecut-bias=0.00 / hist-threshold=0.03 / no-opt-cu-delta-qp / no-aq-motion / no-hdr10 / no-hdr10-opt / no-dhdr10-opt / no-idr-recovery-sei / analysis-reuse-level=0 / analysis-save-reuse-level=0 / analysis-load-reuse-level=0 / scale-factor=0 / refine-intra=0 / refine-inter=0 / refine-mv=1 / refine-ctu-distortion=0 / no-limit-sao / ctu-info=0 / no-lowpass-dct / refine-analysis-type=0 / copy-pic=1 / max-ausize-factor=1.0 / no-dynamic-refine / no-single-sei / no-hevc-aq / no-svt / no-field / qp-adaptation-range=1.00 / scenecut-aware-qp=0conformance-window-offsets / right=0 / bottom=0 / decoder-max-rate=0 / no-vbv-live-multi-pass
Язык : English
Default : Да
Forced : Нет

Аудио #1
Идентификатор : 2
ID in the original source medium : 4353 (0x1101)
Формат : AC-3
Формат/Информация : Audio Coding 3
Коммерческое название : Dolby Digital
Идентификатор кодека : A_AC3
Продолжительность : 1 ч. 40 м.
Вид битрейта : Постоянный
Битрейт : 640 Кбит/сек
Каналы : 6 каналов
Channel layout : L R C LFE Ls Rs
Частота : 48,0 КГц
Частота кадров : 31,250 кадров/сек (1536 SPF)
Метод сжатия : С потерями
Размер потока : 460 Мбайт (7%)
Заголовок : DUB (Sony Pictures / BD CEE)
Язык : Russian
Service kind : Complete Main
Default : Да
Forced : Нет
Носитель оригинала : Blu-ray

Аудио #2
Идентификатор : 3
ID in the original source medium : 4355 (0x1103)
Формат : AC-3
Формат/Информация : Audio Coding 3
Коммерческое название : Dolby Digital
Настройки формата : Dolby Surround
Идентификатор кодека : A_AC3
Продолжительность : 1 ч. 40 м.
Вид битрейта : Постоянный
Битрейт : 192 Кбит/сек
Каналы : 2 канала
Channel layout : L R
Частота : 48,0 КГц
Частота кадров : 31,250 кадров/сек (1536 SPF)
Метод сжатия : С потерями
Размер потока : 138 Мбайт (2%)
Заголовок : DVO (Ren-TV)
Язык : Russian
Service kind : Complete Main
Default : Нет
Forced : Нет
Носитель оригинала : Blu-ray

Аудио #3
Идентификатор : 4
ID in the original source medium : 4356 (0x1104)
Формат : AC-3
Формат/Информация : Audio Coding 3
Коммерческое название : Dolby Digital
Настройки формата : Dolby Surround
Идентификатор кодека : A_AC3
Продолжительность : 1 ч. 40 м.
Вид битрейта : Постоянный
Битрейт : 192 Кбит/сек
Каналы : 2 канала
Channel layout : L R
Частота : 48,0 КГц
Частота кадров : 31,250 кадров/сек (1536 SPF)
Метод сжатия : С потерями
Размер потока : 138 Мбайт (2%)
Заголовок : DVO (SDI-Media Латвия)
Язык : Russian
Service kind : Complete Main
Default : Нет
Forced : Нет
Носитель оригинала : Blu-ray

Аудио #4
Идентификатор : 5
Формат : AC-3
Формат/Информация : Audio Coding 3
Коммерческое название : Dolby Digital
Идентификатор кодека : A_AC3
Продолжительность : 1 ч. 40 м.
Вид битрейта : Постоянный
Битрейт : 640 Кбит/сек
Каналы : 6 каналов
Channel layout : L R C LFE Ls Rs
Частота : 48,0 КГц
Частота кадров : 31,250 кадров/сек (1536 SPF)
Метод сжатия : С потерями
Размер потока : 460 Мбайт (7%)
Заголовок : AVO (Юрий Живов)
Язык : Russian
Service kind : Complete Main
Default : Да
Forced : Нет

Аудио #5
Идентификатор : 6
ID in the original source medium : 4359 (0x1107)
Формат : AC-3
Формат/Информация : Audio Coding 3
Коммерческое название : Dolby Digital
Настройки формата : Dolby Surround
Идентификатор кодека : A_AC3
Продолжительность : 1 ч. 40 м.
Вид битрейта : Постоянный
Битрейт : 192 Кбит/сек
Каналы : 2 канала
Channel layout : L R
Частота : 48,0 КГц
Частота кадров : 31,250 кадров/сек (1536 SPF)
Метод сжатия : С потерями
Размер потока : 138 Мбайт (2%)
Заголовок : AVO (Николай Антонов)
Язык : Russian
Service kind : Complete Main
Default : Нет
Forced : Нет
Носитель оригинала : Blu-ray

Аудио #6
Идентификатор : 7
ID in the original source medium : 4360 (0x1108)
Формат : AC-3
Формат/Информация : Audio Coding 3
Коммерческое название : Dolby Digital
Настройки формата : Dolby Surround
Идентификатор кодека : A_AC3
Продолжительность : 1 ч. 40 м.
Вид битрейта : Постоянный
Битрейт : 192 Кбит/сек
Каналы : 2 канала
Channel layout : L R
Частота : 48,0 КГц
Частота кадров : 31,250 кадров/сек (1536 SPF)
Метод сжатия : С потерями
Размер потока : 138 Мбайт (2%)
Заголовок : MVO (ТК Украiна)
Язык : Ukrainian
Service kind : Complete Main
Default : Нет
Forced : Нет
Носитель оригинала : Blu-ray

Аудио #7
Идентификатор : 8
ID in the original source medium : 4361 (0x1109)
Формат : AC-3
Формат/Информация : Audio Coding 3
Коммерческое название : Dolby Digital
Настройки формата : Dolby Surround
Идентификатор кодека : A_AC3
Продолжительность : 1 ч. 40 м.
Вид битрейта : Постоянный
Битрейт : 192 Кбит/сек
Каналы : 2 канала
Channel layout : L R
Частота : 48,0 КГц
Частота кадров : 31,250 кадров/сек (1536 SPF)
Метод сжатия : С потерями
Размер потока : 138 Мбайт (2%)
Заголовок : MVO (ICTV)
Язык : Ukrainian
Service kind : Complete Main
Default : Нет
Forced : Нет
Носитель оригинала : Blu-ray

Аудио #8
Идентификатор : 9
Формат : AC-3
Формат/Информация : Audio Coding 3
Коммерческое название : Dolby Digital
Идентификатор кодека : A_AC3
Продолжительность : 1 ч. 40 м.
Вид битрейта : Постоянный
Битрейт : 640 Кбит/сек
Каналы : 6 каналов
Channel layout : L R C LFE Ls Rs
Частота : 48,0 КГц
Частота кадров : 31,250 кадров/сек (1536 SPF)
Метод сжатия : С потерями
Размер потока : 460 Мбайт (7%)
Язык : English
Service kind : Complete Main
Default : Нет
Forced : Нет

Текст #1
Идентификатор : 10
Формат : UTF-8
Идентификатор кодека : S_TEXT/UTF8
Идентификатор кодека/Информация : UTF-8 Plain Text
Продолжительность : 1 ч. 34 м.
Битрейт : 64 бит/сек
Count of elements : 666
Размер потока : 44,4 Кбайт (0%)
Язык : Russian
Default : Нет
Forced : Нет

Текст #2
Идентификатор : 11
Формат : UTF-8
Идентификатор кодека : S_TEXT/UTF8
Идентификатор кодека/Информация : UTF-8 Plain Text
Продолжительность : 1 ч. 33 м.
Битрейт : 39 бит/сек
Count of elements : 651
Размер потока : 27,2 Кбайт (0%)
Язык : English
Default : Нет
Forced : Нет

Меню
00:00:00.000 : Start
00:05:34.459 : Confession
00:12:37.298 : Ray
00:20:10.834 : Karla
00:25:51.967 : Tyrell
00:33:10.071 : Seeing Things
00:35:34.966 : Contest Winner
00:44:11.732 : "Here I Go Again"
00:53:23.366 : Tower Bay
01:01:34.607 : Mr. Brooks
01:08:34.819 : Nancy
01:17:02.618 : "I Will Survive"
01:21:26.298 : Darrick Docked
01:26:25.221 : Housekeeping
01:30:27.463 : Dead Guy in Closet
01:33:13.087 : Shear Death
Загрузка...Cкриншот1 Я всё еще знаю, что вы сделали прошлым летом / I Still Know What You Did Last Summer (1998) BDRip 1080p [HEVC] 10 bit от OldGamer (RG RIPS CLUB)Загрузка...Cкриншот2 Я всё еще знаю, что вы сделали прошлым летом / I Still Know What You Did Last Summer (1998) BDRip 1080p [HEVC] 10 bit от OldGamer (RG RIPS CLUB)Загрузка...Cкриншот3 Я всё еще знаю, что вы сделали прошлым летом / I Still Know What You Did Last Summer (1998) BDRip 1080p [HEVC] 10 bit от OldGamer (RG RIPS CLUB)Загрузка...Cкриншот4 Я всё еще знаю, что вы сделали прошлым летом / I Still Know What You Did Last Summer (1998) BDRip 1080p [HEVC] 10 bit от OldGamer (RG RIPS CLUB)
Релиз-группа: RIPS CLUB
Сэмпл Торрент🧲 Магнет

Рейтинги КП и IMDB, кнопки "Позвать в чате" и "Спасибо", а также мультитрекерная статистика доступны только зарегистрированным/авторизованным пользователям!

Файлы: 1
  • Я.всё.еще.знаю.что.вы.сделали.прошлым.летом.I.Still.Know.What.You.Did.Last.Summer.1998.BDRip-HEVC.1080p.mkv   6.59 ГБ
Поблагодарили: 8
and50, donadar, Kilop77, Kiran, makss333, mvclub, sabretooth, sharkey71
OldGamer
178306.59 ГБ

Добавление нового комментария

Добавление комментариев доступно только зарегистрированным/авторизованным пользователям.
Аватар OldGamer
  OldGamer  
Использован исходник и аудиодорожки с разрешения TEAMHD.org
Релиз от lumez доступен благодаря проекту "Мастерская".
Дубляж с дублированными песнями (есть версия с оригинальными голосами).
Юрий Живов собран с чистого голоса. Сборка - djamb.
SDI-Media Латвия и Ren-TV из раздачи mister55555 (рутрекер). Ren-TV почищена и поправлена на местах вставок Видеосервиса.
Первые полчаса Антонова из оцифровки от RockNIK, остальное от lumez / pussen64.
Украинская озвучка доступна благодаря Hurtom.
Субтитры взяты на https://www.opensubtitles.org/ru