💬 Мини-чат

OldGamerНасколько я помню, даже мой первый стик 2014 года тянул hevc, хотя и подтупливал на перемотке
OldGamerВыбирайте по цене и отзывам.
OldGamerСообщение удалено (удалил: OldGamer)
OldGamerЛюбой, всё что выпускалось за последние 3 года, вполне тянет hevc. Чуть раньше в чате ссылку давал на обсуждения на 4пда.
SAHA55Подскажите,пожалуйста какой купить медио плеер для просмотра видео в HEVC x265 с переносного жёсткого на 1 Тб. TV старый Panasonic
  • OldGamer
  • Chestnoc
  • Nuclear70
Отправка сообщений доступна только зарегистрированным/авторизованным пользователям.
Онлайн (за 10 мин.): 3

Неудержимые / The Expendables (2010) [Theatrical Cut] BDRip 1080p [HEVC] 10 bit от Spartanec1308

HEVC
10 bit
Обложка Неудержимые / The Expendables (2010) [Theatrical Cut] BDRip 1080p [HEVC] 10 bit от Spartanec1308 Год: 2010
Страна: США
Студия: Millennium Films, Nu-Image Films, Rogue Marble
Жанр: Боевик, Триллер, Приключения
Продолжительность: 01:43:28

Режиссер: Сильвестр Сталлоне
В ролях: Сильвестр Сталлоне, Арнольд Шварценеггер, Брюс Уиллис, Микки Рурк, Джейсон Стэтхэм, Джет Ли, Дольф Лундгрен, Эрик Робертс, Рэнди Кутюр, Стив Остин, Дэвид Зайас, Жизель Итье, Харизма Карпентер, Гарри Дэниелс, Тэрри Крю, Хэнк Амос

Описание: Отряд профессиональных наёмников и отчаянных парней во главе с Барни Россом получает непростое задание — любой ценой найти и уничтожить кровавого тирана-диктатора, нагнетающего страх на мирное население и сеющего хаос в южноамериканской стране. Отправляясь на выполнение нелёгкой миссии, закалённые огнём и водой, прошедшие не одну войну, люди Росса попадают в самое пекло. Отныне им придётся выживать: сплотиться и достигнуть цели, либо отчаяться и погибнуть. И всё же эти храбрые, поистине невозмутимые ребята готовы реализовать даже не реализуемое. Но не всё так просто, как кажется на первый взгляд…


Видео: 1920x816, 7852 Кбит/сек, 0.209 бит/(Пиксели*Кадры), 23,976 кадр/сек, HEVC (Main10@L.4.1@High) 10 бит
Аудио1: AC3, 6 ch, 448 Kbps - РусскийРусский, Дублированный (Лицензия)
Аудио2: AC3, 6 ch, 640 Kbps - АнглийскийАнглийский, Оригинал
Субтитры: Русские (полные, форсированные), английские

Как за пару секунд удалить ненужные аудиодорожки и субтитры (Внимание! После удаления вы не сможете поддержать раздачу)

Лог (x265 info)
x265 [info]: frame I: 2197, Avg QP:17.39 kb/s: 24465.37
x265 [info]: frame P: 34987, Avg QP:18.90 kb/s: 15287.32
x265 [info]: frame B: 111640, Avg QP:21.27 kb/s: 5194.50
x265 [info]: Weighted P-Frames: Y:8.3% UV:7.2%
x265 [info]: Weighted B-Frames: Y:8.3% UV:6.6%
x265 [info]: consecutive B-frames: 14.0% 8.3% 10.4% 35.3% 6.9% 17.8% 3.2% 3.5% 0.3% 0.1% 0.1%

encoded 148824 frames in 175453.13s (0.85 fps), 7851.71 kb/s, Avg QP:20.65
Медиаинфо
Формат : Matroska
Версия формата : Version 4
Размер файла : 6,46 Гбайт
Продолжительность : 1 ч. 43 м.
Общий поток : 8942 Кбит/сек
Название фильма : by Spartanec
Дата кодирования : UTC 2021-09-12 16:35:03
Программа кодирования : mkvmerge v7.0.0 ('Where We Going') 64bit built on Jun 9 2014 15:16:27
Библиотека кодирования : libebml v1.3.0 + libmatroska v1.4.1
Обложка : Yes
Attachments : cover.jpg

Видео
Идентификатор : 1
Формат : HEVC
Формат/Информация : High Efficiency Video Coding
Профиль формата : Main 10@L4.1@High
Идентификатор кодека : V_MPEGH/ISO/HEVC
Продолжительность : 1 ч. 43 м.
Битрейт : 7852 Кбит/сек
Ширина : 1920 пикселей
Высота : 816 пикселей
Соотношение сторон : 2,35:1
Режим частоты кадров : Постоянный
Частота кадров : 23,976 (23976/1000) кадра/сек
Частота кадров в оригинале : 23,976 (24000/1001) кадра/сек
Цветовое пространство : YUV
Субдискретизация насыщенности : 4:2:0
Битовая глубина : 10 бит
Бит/(Пиксели*Кадры) : 0.209
Размер потока : 5,67 Гбайт (88%)
Заголовок : Spartanec
Библиотека кодирования : x265 3.5+10-82786fccc:[Windows][GCC 11.1.0][64 bit] 10bit
Настройки программы : cpuid=1111039 / frame-threads=4 / numa-pools=16 / wpp / no-pmode / no-pme / no-psnr / no-ssim / log-level=2 / input-csp=1 / input-res=1920x816 / interlace=0 / total-frames=148824 / level-idc=41 / high-tier=1 / uhd-bd=0 / ref=5 / no-allow-non-conformance / no-repeat-headers / annexb / no-aud / no-eob / no-eos / no-hrd / info / hash=0 / no-temporal-layers / open-gop / min-keyint=23 / keyint=240 / gop-lookahead=0 / bframes=10 / b-adapt=2 / b-pyramid / bframe-bias=0 / rc-lookahead=60 / lookahead-slices=1 / scenecut=40 / hist-scenecut=0 / radl=0 / no-splice / no-intra-refresh / ctu=32 / min-cu-size=8 / rect / amp / max-tu-size=32 / tu-inter-depth=4 / tu-intra-depth=4 / limit-tu=1 / rdoq-level=1 / dynamic-rd=0.00 / no-ssim-rd / signhide / no-tskip / nr-intra=0 / nr-inter=0 / no-constrained-intra / no-strong-intra-smoothing / max-merge=5 / limit-refs=0 / no-limit-modes / me=3 / subme=7 / merange=57 / temporal-mvp / no-frame-dup / no-hme / weightp / weightb / no-analyze-src-pics / deblock=-2:-2 / no-sao / no-sao-non-deblock / rd=6 / selective-sao=0 / no-early-skip / no-rskip / no-fast-intra / no-tskip-fast / no-cu-lossless / b-intra / no-splitrd-skip / rdpenalty=0 / psy-rd=2.00 / psy-rdoq=1.00 / no-rd-refine / no-lossless / cbqpoffs=0 / crqpoffs=0 / rc=crf / crf=20.5 / qcomp=0.70 / qpstep=4 / stats-write=0 / stats-read=0 / vbv-maxrate=50000 / vbv-bufsize=50000 / vbv-init=0.9 / min-vbv-fullness=50.0 / max-vbv-fullness=80.0 / crf-max=0.0 / crf-min=0.0 / ipratio=1.40 / pbratio=1.30 / aq-mode=2 / aq-strength=1.00 / no-cutree / zone-count=0 / no-strict-cbr / qg-size=32 / no-rc-grain / qpmax=69 / qpmin=0 / no-const-vbv / sar=1 / overscan=0 / videoformat=5 / range=0 / colorprim=1 / transfer=1 / colormatrix=1 / chromaloc=0 / display-window=0 / cll=0,0 / min-luma=0 / max-luma=1023 / log2-max-poc-lsb=8 / vui-timing-info / vui-hrd-info / slices=1 / no-opt-qp-pps / no-opt-ref-list-length-pps / no-multi-pass-opt-rps / scenecut-bias=0.05 / hist-threshold=0.03 / no-opt-cu-delta-qp / no-aq-motion / no-hdr10 / no-hdr10-opt / no-dhdr10-opt / no-idr-recovery-sei / analysis-reuse-level=0 / analysis-save-reuse-level=0 / analysis-load-reuse-level=0 / scale-factor=0 / refine-intra=0 / refine-inter=0 / refine-mv=0 / refine-ctu-distortion=0 / no-limit-sao / ctu-info=0 / no-lowpass-dct / refine-analysis-type=0 / copy-pic=1 / max-ausize-factor=1.0 / no-dynamic-refine / no-single-sei / no-hevc-aq / no-svt / no-field / qp-adaptation-range=1.00 / scenecut-aware-qp=0conformance-window-offsets / right=0 / bottom=0 / decoder-max-rate=0 / no-vbv-live-multi-pass
Default : Да
Forced : Нет
Цветовой диапазон : Limited
Основные цвета : BT.709
Характеристики трансфера : BT.709
Коэффициенты матрицы : BT.709

Аудио #1
Идентификатор : 2
Формат : AC-3
Формат/Информация : Audio Coding 3
Коммерческое название : Dolby Digital
Идентификатор кодека : A_AC3
Продолжительность : 1 ч. 43 м.
Вид битрейта : Постоянный
Битрейт : 640 Кбит/сек
Каналы : 6 каналов
ChannelLayout : L R C LFE Ls Rs
Частота : 48,0 КГц
Частота кадров : 31,250 кадров/сек (1536 SPF)
Битовая глубина : 16 бит
Метод сжатия : С потерями
Размер потока : 474 Мбайт (7%)
Заголовок : Оригинал
ServiceKind/String : Complete Main
Default : Нет
Forced : Нет

Аудио #2
Идентификатор : 6
Формат : AC-3
Формат/Информация : Audio Coding 3
Коммерческое название : Dolby Digital
Идентификатор кодека : A_AC3
Продолжительность : 1 ч. 43 м.
Вид битрейта : Постоянный
Битрейт : 448 Кбит/сек
Каналы : 6 каналов
ChannelLayout : L R C LFE Ls Rs
Частота : 48,0 КГц
Частота кадров : 31,250 кадров/сек (1536 SPF)
Битовая глубина : 16 бит
Метод сжатия : С потерями
Задержка видео : 24 мс.
Размер потока : 331 Мбайт (5%)
Заголовок : Дубляж
ServiceKind/String : Complete Main
Default : Да
Forced : Нет

Текст #1
Идентификатор : 3
Формат : UTF-8
Идентификатор кодека : S_TEXT/UTF8
Идентификатор кодека/Информация : UTF-8 Plain Text
Продолжительность : 1 ч. 27 м.
Битрейт : 3 бит/сек
ElementCount : 52
Размер потока : 2,41 Кбайт (0%)
Заголовок : forced
Default : Нет
Forced : Нет

Текст #2
Идентификатор : 4
Формат : UTF-8
Идентификатор кодека : S_TEXT/UTF8
Идентификатор кодека/Информация : UTF-8 Plain Text
Продолжительность : 1 ч. 30 м.
Битрейт : 69 бит/сек
ElementCount : 911
Размер потока : 45,8 Кбайт (0%)
Заголовок : full
Default : Да
Forced : Нет

Текст #3
Идентификатор : 5
Формат : UTF-8
Идентификатор кодека : S_TEXT/UTF8
Идентификатор кодека/Информация : UTF-8 Plain Text
Продолжительность : 1 ч. 34 м.
Битрейт : 43 бит/сек
ElementCount : 1057
Размер потока : 30,3 Кбайт (0%)
Заголовок : full
Default : Нет
Forced : Нет

Меню
00:00:00.000 : :00:00:00.000
00:08:50.822 : :00:08:50.822
00:17:32.175 : :00:17:32.176
00:22:47.741 : :00:22:47.741
00:30:35.167 : :00:30:35.167
00:33:34.846 : :00:33:34.846
00:38:17.128 : :00:38:17.128
00:47:51.785 : :00:47:51.785
00:50:15.179 : :00:50:15.179
00:55:09.222 : :00:55:09.222
01:00:15.737 : :01:00:15.737
01:06:31.529 : :01:06:31.529
01:13:36.537 : :01:13:36.537
01:20:17.229 : :01:20:17.229
01:26:01.323 : :01:26:01.323
01:31:17.180 : :01:31:17.180
Загрузка...Cкриншот1 Неудержимые / The Expendables (2010) [Theatrical Cut] BDRip 1080p [HEVC] 10 bit от Spartanec1308Загрузка...Cкриншот2 Неудержимые / The Expendables (2010) [Theatrical Cut] BDRip 1080p [HEVC] 10 bit от Spartanec1308Загрузка...Cкриншот3 Неудержимые / The Expendables (2010) [Theatrical Cut] BDRip 1080p [HEVC] 10 bit от Spartanec1308Загрузка...Cкриншот4 Неудержимые / The Expendables (2010) [Theatrical Cut] BDRip 1080p [HEVC] 10 bit от Spartanec1308
Сэмпл Торрент🧲 Магнет

Раздача обновлена!
Исправлено отсутствие звука в дубляже на последних 10 мин.

Рейтинги КП и IMDB, кнопки "Позвать в чате" и "Спасибо", а также мультитрекерная статистика доступны только зарегистрированным/авторизованным пользователям!

Файлы: 1
  • Неудержимые (2010) BDRip 1080p [HEVC] 10bit by Spartanec.mkv   6.46 ГБ
Поблагодарили: 11
anderb, Andrey_alex, Brooklyn, cdmitry, donadar, Kiran, MIGRANT, Nuclear70, OldGamer, Rezident, SERGIY
Spartanec1308
418726.46 ГБ

Добавление нового комментария

Добавление комментариев доступно только зарегистрированным/авторизованным пользователям.
Аватар Spartanec1308
  Spartanec1308  
В работе
Аватар не указан
  donadar  
а 3 фильм будет???
Аватар OldGamer
  OldGamer  
Manson_Fan писал(а):
я извиняюсь, а сравнение со старой раздачей можно?
https://rips.club/video-1115/
P.S - потыкал скрины с той раздачи и с ваше й- тут источник другой какой то или вы сами так гамму поменяли? картинка вроде ярче, будто в той раздаче через темное стекло снимали а тут нет, правда в вашей по бокам картинка обрезана чутка
Тот факт, что у Химика по вертикали -18 пикселей, не попадает под понятие «обрезана чутка» ?
Аватар Manson_Fan
  Manson_Fan  (Отредактировал Manson_Fan: )    
я извиняюсь, а сравнение со старой раздачей можно?
https://rips.club/video-1115/
P.S - потыкал скрины с той раздачи и с ваше й- тут источник другой какой то или вы сами так гамму поменяли? картинка вроде ярче, будто в той раздаче через темное стекло снимали а тут нет, правда в вашей по бокам картинка обрезана чутка