💬 Мини-чат

77carlsson77Раздайте, пожалуйста, Бездна / The Deep (1977) BDRip 1080p [HEVC] 10 bit от ADVOKAT69
77carlsson77Раздайте, пожалуйста, Бременские музыканты (1969-1973) BDRip 1080p [HEVC] 10 bit от ADVOKAT69
ADVOKAT69Маугли, Джентльмены удачи раздаю!
ADVOKAT69все хорошо!
FijiMAXРаздайте, пожалуйста, Знакомство с родителями: Трилогия / Meet the Parents: Trilogy (2000-2010) BDRip 1080p [HEVC] 10 bit от OldGamer (RG RIPS CLUB)
NiflungРаздайте, пожалуйста, Багровый пик / Crimson Peak (2015) BDRip 1080p [HEVC] 10 bit от -Star-Lord- (RG RIPS CLUB)
NiflungРаздайте, пожалуйста, Маугли (1967-1971) BDRip 1080p [HEVC] 10 bit от ADVOKAT69
NiflungРаздайте, пожалуйста, Волшебник страны Оз / The Wizard of Oz (1939) BDRip 1080p [HEVC] 10 bit от Мичман
77carlsson77Раздайте, пожалуйста, Замёрзшие / Frozen (2010) BDRip 1080p [HEVC] 10 bit от M@kSIMus
StarLordHANNIBAL, привет ✌
joker63HANNIBAL, Привет))
HANNIBALвсем здрасти
Mr. FoxBeebo, не планировал, но подумаю
BeeboMr.Fox, стоит ли ждать рип Чужие серди нас?
StarLordOldGamer, это классика жанра 😄
OldGamerух ты, в anime.club попаль...
  • ADVOKAT69
  • Spartanec1308
  • 77carlsson77
  • AlexTwitt
  • Brooklyn
  • demons22
  • pmihail99
  • uzas1985
Отправка сообщений доступна только зарегистрированным/авторизованным пользователям.
Онлайн (за 10 мин.): 8

Круэлла / Cruella (2021) BDRip 1080p [HEVC] 10 bit от -Star-Lord- (RG RIPS CLUB)

HEVC
10 bit
Обложка Круэлла / Cruella (2021) BDRip 1080p [HEVC] 10 bit от -Star-Lord- (RG RIPS CLUB) Год: 2021
Страна: США, Великобритания
Студия: Gunn Films, Marc Platt Productions, TSG Entertainment, Walt Disney Pictures
Жанр: Комедия, Криминал, Драма
Продолжительность: 02:13:55

Режиссер: Крэйг Гиллеспи
В ролях: Эмма Стоун, Эмма Томпсон, Джоэль Фрай, Пол Уолтер Хаузер, Джон Маккри, Эмили Бичем, Марк Стронг, Кайван Новак, Кирби Хауэлл-Баптист, Джэми Деметриу, Ниам Линч, Эндрю Люн, Эд Бирч, Дилан Лоу, Пол Базели, Абрахам Попула, Линетт Бомонт, Камилла Рольм

Описание: Лондон 70-х годов охвачен зарождающейся культурой панк-рока. Невероятно одаренная мошенница по имени Эстелла решает сделать себе имя в мире моды. Её лучшие друзья — парочка юных карманников, которые ценят страсть Эстеллы к приключениям и надеются вместе с ней отвоевать себе место под солнцем на улицах британской столицы. В один прекрасный день модное чутье Эстеллы привлекает внимание шикарной и пугающе высокомерной баронессы фон Хельман.


Исходник: Cruella.2021.1080p.EUR.Blu-ray.AVC.DTS-HD.MA.7.1-ESiR
Видео: 1920x1040, ~6647 Кбит/сек
Аудио1: AC3, 6 ch, 640 Kbps - РусскийРусский, Дублированный (KION)
Аудио2: AC3, 6 ch, 448 Kbps - РусскийРусский, Профессиональный многоголосый закадровый (HDrezka Studio)
Аудио3: AC3, 6 ch, 640 Kbps - РусскийРусский, Любительский двухголосый закадровый (Pazl Voice)
Аудио4: AC3, 6 ch, 640 Kbps - УкраинскийУкраинский, Дублированный
Аудио5: AC3, 6 ch, 640 Kbps - УкраинскийУкраинский, Профессиональный многоголосый закадровый (HDrezka Studio)
Аудио6: AC3, 6 ch, 640 Kbps - АнглийскийАнглийский, Оригинал
Субтитры: русские (форс. х2, полные х3), украинские (форс., полные), английские (полные, SDH)

Как за пару секунд удалить ненужные аудиодорожки и субтитры (Внимание! После удаления вы не сможете поддержать раздачу)

Лог (x265 info)
x265 [info]: frame I: 2409, Avg QP:16.58 kb/s: 26177.24
x265 [info]: frame P: 38027, Avg QP:17.77 kb/s: 13017.16
x265 [info]: frame B: 152228, Avg QP:20.80 kb/s: 4745.32
x265 [info]: Weighted P-Frames: Y:6.5% UV:5.3%
x265 [info]: Weighted B-Frames: Y:3.9% UV:3.0%
x265 [info]: consecutive B-frames: 9.9% 3.5% 5.1% 26.5% 11.1% 32.1% 6.4% 4.2% 0.7% 0.3% 0.1% 0.0% 0.0% 0.0% 0.0% 0.0% 0.0%

encoded 192664 frames in 214171.94s (0.90 fps), 6645.95 kb/s, Avg QP:20.15
Медиаинфо
General
Unique ID : 223835621533017861057358712489076679461 (0xA8652C305F3562C6D057C3FBB64D6325)
Complete name : Cruella (2021) BDRip 1080p H.265 [3xRUS_2xUKR_ENG] [RIPS-CLUB].mkv
Format : Matroska
Format version : Version 4
File size : 9.82 GiB
Duration : 2 h 14 min
Overall bit rate : 10.5 Mb/s
Movie name : Круэлла / Круелла / Cruella (2021)
Encoded date : UTC 2021-10-22 09:23:01
Writing application : mkvmerge v61.0.0 ('So') 64-bit
Writing library : libebml v1.4.2 + libmatroska v1.6.4
Cover : Yes
Attachments : Cover.jpg

Video
ID : 1
Format : HEVC
Format/Info : High Efficiency Video Coding
Format profile : Main 10@L4.1@High
Codec ID : V_MPEGH/ISO/HEVC
Duration : 2 h 13 min
Bit rate : 6 647 kb/s
Width : 1 920 pixels
Height : 1 040 pixels
Display aspect ratio : 1.85:1
Frame rate mode : Constant
Frame rate : 23.976 (24000/1001) FPS
Color space : YUV
Chroma subsampling : 4:2:0
Bit depth : 10 bits
Bits/(Pixel*Frame) : 0.139
Stream size : 6.22 GiB (63%)
Title : Круэлла / Круелла / Cruella (2021)
Writing library : x265 3.5+1-ce882936d:[Windows][GCC 10.2.0][64 bit] 10bit
Encoding settings : cpuid=1111039 / frame-threads=3 / numa-pools=12 / wpp / no-pmode / no-pme / no-psnr / no-ssim / log-level=2 / input-csp=1 / input-res=1920x1040 / interlace=0 / total-frames=192664 / level-idc=41 / high-tier=1 / uhd-bd=0 / ref=5 / no-allow-non-conformance / no-repeat-headers / annexb / no-aud / no-hrd / info / hash=0 / no-temporal-layers / open-gop / min-keyint=23 / keyint=240 / gop-lookahead=0 / bframes=16 / b-adapt=2 / b-pyramid / bframe-bias=0 / rc-lookahead=60 / lookahead-slices=4 / scenecut=40 / hist-scenecut=0 / radl=0 / no-splice / no-intra-refresh / ctu=32 / min-cu-size=8 / rect / amp / max-tu-size=32 / tu-inter-depth=4 / tu-intra-depth=4 / limit-tu=1 / rdoq-level=2 / dynamic-rd=0.00 / no-ssim-rd / signhide / no-tskip / nr-intra=0 / nr-inter=0 / no-constrained-intra / no-strong-intra-smoothing / max-merge=5 / limit-refs=2 / limit-modes / me=3 / subme=7 / merange=57 / temporal-mvp / no-frame-dup / no-hme / weightp / weightb / no-analyze-src-pics / deblock=-3:-3 / no-sao / no-sao-non-deblock / rd=6 / selective-sao=0 / no-early-skip / no-rskip / no-fast-intra / no-tskip-fast / no-cu-lossless / no-b-intra / no-splitrd-skip / rdpenalty=0 / psy-rd=2.00 / psy-rdoq=1.00 / no-rd-refine / no-lossless / cbqpoffs=0 / crqpoffs=0 / rc=crf / crf=20.7 / qcomp=0.70 / qpstep=4 / stats-write=0 / stats-read=0 / vbv-maxrate=50000 / vbv-bufsize=50000 / vbv-init=0.9 / min-vbv-fullness=50.0 / max-vbv-fullness=80.0 / crf-max=0.0 / crf-min=0.0 / ipratio=1.40 / pbratio=1.30 / aq-mode=1 / aq-strength=1.00 / no-cutree / zone-count=0 / no-strict-cbr / qg-size=32 / no-rc-grain / qpmax=69 / qpmin=0 / no-const-vbv / sar=1 / overscan=0 / videoformat=5 / range=0 / colorprim=2 / transfer=2 / colormatrix=2 / chromaloc=0 / display-window=0 / cll=0,0 / min-luma=0 / max-luma=1023 / log2-max-poc-lsb=8 / vui-timing-info / vui-hrd-info / slices=1 / no-opt-qp-pps / no-opt-ref-list-length-pps / no-multi-pass-opt-rps / scenecut-bias=0.05 / hist-threshold=0.03 / no-opt-cu-delta-qp / no-aq-motion / no-hdr10 / no-hdr10-opt / no-dhdr10-opt / no-idr-recovery-sei / analysis-reuse-level=0 / analysis-save-reuse-level=0 / analysis-load-reuse-level=0 / scale-factor=0 / refine-intra=0 / refine-inter=0 / refine-mv=1 / refine-ctu-distortion=0 / no-limit-sao / ctu-info=0 / no-lowpass-dct / refine-analysis-type=0 / copy-pic=1 / max-ausize-factor=1.0 / no-dynamic-refine / no-single-sei / no-hevc-aq / no-svt / no-field / qp-adaptation-range=1.00 / scenecut-aware-qp=0conformance-window-offsets / right=0 / bottom=0 / decoder-max-rate=0 / no-vbv-live-multi-pass
Language : English
Default : Yes
Forced : Yes

Audio #1
ID : 2
Format : AC-3
Format/Info : Audio Coding 3
Commercial name : Dolby Digital
Codec ID : A_AC3
Duration : 2 h 13 min
Bit rate mode : Constant
Bit rate : 640 kb/s
Channel(s) : 6 channels
Channel layout : L R C LFE Ls Rs
Sampling rate : 48.0 kHz
Frame rate : 31.250 FPS (1536 SPF)
Bit depth : 32 bits
Compression mode : Lossy
Stream size : 613 MiB (6%)
Title : AC-3 / 5.1 Ch / 640 kbps / DUB / KION
Language : Russian
Service kind : Complete Main
Default : Yes
Forced : Yes

Audio #2
ID : 3
Format : AC-3
Format/Info : Audio Coding 3
Commercial name : Dolby Digital
Codec ID : A_AC3
Duration : 2 h 14 min
Bit rate mode : Constant
Bit rate : 640 kb/s
Channel(s) : 6 channels
Channel layout : L R C LFE Ls Rs
Sampling rate : 48.0 kHz
Frame rate : 31.250 FPS (1536 SPF)
Compression mode : Lossy
Stream size : 613 MiB (6%)
Title : AC-3 / 5.1 Ch / 448 kbps / MVO / HDrezka Studio
Language : Russian
Service kind : Complete Main
Default : No
Forced : No

Audio #3
ID : 4
Format : AC-3
Format/Info : Audio Coding 3
Commercial name : Dolby Digital
Codec ID : A_AC3
Duration : 2 h 13 min
Bit rate mode : Constant
Bit rate : 640 kb/s
Channel(s) : 6 channels
Channel layout : L R C LFE Ls Rs
Sampling rate : 48.0 kHz
Frame rate : 31.250 FPS (1536 SPF)
Compression mode : Lossy
Stream size : 613 MiB (6%)
Title : AC-3 / 5.1 Ch / 640 kbps / DVO / Pazl Voice
Language : Russian
Service kind : Complete Main
Default : No
Forced : No

Audio #4
ID : 5
Format : AC-3
Format/Info : Audio Coding 3
Commercial name : Dolby Digital
Codec ID : A_AC3
Duration : 2 h 13 min
Bit rate mode : Constant
Bit rate : 640 kb/s
Channel(s) : 6 channels
Channel layout : L R C LFE Ls Rs
Sampling rate : 48.0 kHz
Frame rate : 31.250 FPS (1536 SPF)
Compression mode : Lossy
Stream size : 613 MiB (6%)
Title : AC-3 / 5.1 Ch / 640 kbps / DUB
Language : Ukrainian
Service kind : Complete Main
Default : No
Forced : No

Audio #5
ID : 6
Format : AC-3
Format/Info : Audio Coding 3
Commercial name : Dolby Digital
Codec ID : A_AC3
Duration : 2 h 13 min
Bit rate mode : Constant
Bit rate : 640 kb/s
Channel(s) : 6 channels
Channel layout : L R C LFE Ls Rs
Sampling rate : 48.0 kHz
Frame rate : 31.250 FPS (1536 SPF)
Compression mode : Lossy
Stream size : 613 MiB (6%)
Title : AC-3 / 5.1 Ch / 640 kbps / MVO / HDrezka Studio
Language : Ukrainian
Service kind : Complete Main
Default : No
Forced : No

Audio #6
ID : 7
Format : AC-3
Format/Info : Audio Coding 3
Commercial name : Dolby Digital
Codec ID : A_AC3
Duration : 2 h 13 min
Bit rate mode : Constant
Bit rate : 640 kb/s
Channel(s) : 6 channels
Channel layout : L R C LFE Ls Rs
Sampling rate : 48.0 kHz
Frame rate : 31.250 FPS (1536 SPF)
Compression mode : Lossy
Stream size : 613 MiB (6%)
Title : AC-3 / 5.1 Ch / 640 kbps / Original
Language : English
Service kind : Complete Main
Default : No
Forced : No

Text #1
ID : 8
Format : UTF-8
Codec ID : S_TEXT/UTF8
Codec ID/Info : UTF-8 Plain Text
Duration : 2 h 1 min
Bit rate : 2 b/s
Count of elements : 40
Stream size : 2.27 KiB (0%)
Title : Forced
Language : Russian
Default : Yes
Forced : Yes

Text #2
ID : 9
Format : UTF-8
Codec ID : S_TEXT/UTF8
Codec ID/Info : UTF-8 Plain Text
Duration : 2 h 4 min
Bit rate : 7 b/s
Count of elements : 146
Stream size : 6.96 KiB (0%)
Title : Forced
Language : Russian
Default : No
Forced : No

Text #3
ID : 10
Format : UTF-8
Codec ID : S_TEXT/UTF8
Codec ID/Info : UTF-8 Plain Text
Duration : 2 h 13 min
Bit rate : 68 b/s
Count of elements : 1528
Stream size : 67.2 KiB (0%)
Title : Full from iTunes
Language : Russian
Default : No
Forced : No

Text #4
ID : 11
Format : UTF-8
Codec ID : S_TEXT/UTF8
Codec ID/Info : UTF-8 Plain Text
Duration : 2 h 6 min
Bit rate : 81 b/s
Count of elements : 1563
Stream size : 75.5 KiB (0%)
Title : Full (Focs)
Language : Russian
Default : No
Forced : No

Text #5
ID : 12
Format : UTF-8
Codec ID : S_TEXT/UTF8
Codec ID/Info : UTF-8 Plain Text
Duration : 2 h 7 min
Bit rate : 71 b/s
Count of elements : 1556
Stream size : 66.7 KiB (0%)
Title : Full (PhysKids)
Language : Russian
Default : No
Forced : No

Text #6
ID : 13
Format : UTF-8
Codec ID : S_TEXT/UTF8
Codec ID/Info : UTF-8 Plain Text
Duration : 2 h 2 min
Bit rate : 2 b/s
Count of elements : 38
Stream size : 1.88 KiB (0%)
Title : Forced
Language : Ukrainian
Default : No
Forced : No

Text #7
ID : 14
Format : UTF-8
Codec ID : S_TEXT/UTF8
Codec ID/Info : UTF-8 Plain Text
Duration : 2 h 13 min
Bit rate : 72 b/s
Count of elements : 1529
Stream size : 70.9 KiB (0%)
Title : Full
Language : Ukrainian
Default : No
Forced : No

Text #8
ID : 15
Format : UTF-8
Codec ID : S_TEXT/UTF8
Codec ID/Info : UTF-8 Plain Text
Duration : 2 h 6 min
Bit rate : 46 b/s
Count of elements : 1576
Stream size : 43.6 KiB (0%)
Title : Full
Language : English
Default : No
Forced : No

Text #9
ID : 16
Format : UTF-8
Codec ID : S_TEXT/UTF8
Codec ID/Info : UTF-8 Plain Text
Duration : 2 h 11 min
Bit rate : 53 b/s
Count of elements : 1902
Stream size : 51.3 KiB (0%)
Title : SDH
Language : English
Default : No
Forced : No

Menu
00:00:00.000 : Chapter 01
00:05:08.266 : Chapter 02
00:15:21.293 : Chapter 03
00:25:48.880 : Chapter 04
00:30:55.103 : Chapter 05
00:34:31.193 : Chapter 06
00:35:42.974 : Chapter 07
00:39:34.996 : Chapter 08
00:42:35.594 : Chapter 09
00:46:27.451 : Chapter 10
00:52:29.396 : Chapter 11
00:58:15.657 : Chapter 12
01:04:44.088 : Chapter 13
01:15:05.125 : Chapter 14
01:17:16.715 : Chapter 15
01:21:10.738 : Chapter 16
01:23:12.737 : Chapter 17
01:26:23.511 : Chapter 18
01:30:43.895 : Chapter 19
01:37:40.813 : Chapter 20
01:47:32.404 : Chapter 21
01:55:29.962 : Chapter 22
02:00:19.627 : Chapter 23
02:02:48.569 : Chapter 24
02:04:32.212 : Chapter 25
02:06:18.694 : Chapter 26
02:07:25.386 : Chapter 27
Загрузка...Cкриншот1 Круэлла / Cruella (2021) BDRip 1080p [HEVC] 10 bit от -Star-Lord- (RG RIPS CLUB)Загрузка...Cкриншот2 Круэлла / Cruella (2021) BDRip 1080p [HEVC] 10 bit от -Star-Lord- (RG RIPS CLUB)Загрузка...Cкриншот3 Круэлла / Cruella (2021) BDRip 1080p [HEVC] 10 bit от -Star-Lord- (RG RIPS CLUB)Загрузка...Cкриншот4 Круэлла / Cruella (2021) BDRip 1080p [HEVC] 10 bit от -Star-Lord- (RG RIPS CLUB)
Релиз-группа: RIPS CLUB
Сэмпл Торрент🧲 Магнет

Рейтинги КП и IMDB, кнопки "Позвать в чате" и "Спасибо", а также мультитрекерная статистика доступны только зарегистрированным/авторизованным пользователям!

Файлы: 1
  • Cruella (2021) BDRip 1080p H.265 [3xRUS_2xUKR_ENG] [RIPS-CLUB].mkv   9.82 ГБ
Поблагодарили: 9
and50, anderb, Elico1977, IRIT, Kiran, Mr. Fox, Nuclear70, Rezident, z_artem
StarLord
47027989.82 ГБ

Добавление нового комментария

Добавление комментариев доступно только зарегистрированным/авторизованным пользователям.
Аватар StarLord
  StarLord  
Mr. Fox писал(а):
я тоже после Жандармов и Молчания ягнят (с 4к HDR) забацаю для коллекции в HDR
круто, ждем)

ура, дождался таки жандармов))
Аватар Mr. Fox
  Mr. Fox  
StarLord писал(а):
ага, мне фильм тоже понравился, по-этому и решил рип сделать)
я тоже после Жандармов и Молчания ягнят (с 4к HDR) забацаю для коллекции в HDR
Аватар StarLord
  StarLord  
Mr. Fox писал(а):
Вау! Долго не смотрел и не ожидал, что получу ОГРОМНОЕ удовольствие от этого фильма.
А саундтрек вообще БОМБА! Electric Light Orchestra, Queen, Deep Purple, Rolling Stones, Doors, Supertramp, Clash, Nancy Sinatra, Blondie
ага, мне фильм тоже понравился, по-этому и решил рип сделать)
Аватар Mr. Fox
  Mr. Fox  (Отредактировал Mr. Fox: )    
Вау! Долго не смотрел и не ожидал, что получу ОГРОМНОЕ удовольствие от этого фильма.
А саундтрек вообще БОМБА! Electric Light Orchestra, Queen, Deep Purple, Rolling Stones, Doors, Supertramp, Clash, Nancy Sinatra, Blondie