💬 Мини-чат

Убедительная просьба не обсуждать тут политику.
AdminЛёшикоБэст, вроде потихоньку идёт. Подождем, если не докачается, то встану.
AdminЛёшикоБэст, перекачайте торрент, а то в профиле не отображается ждете или уже нет
ЛёшикоБэстРаздайте, пожалуйста, Неудержимые / The Expendables (2010) [Theatrical Cut] BDRip 1080p [HEVC] 10 bit от Spartanec1308
OldGamerДа, есть.
ЛёшикоБэстДоброго вечера) Скажите пожалуйста, есть ли в планах сделать релиз дилогии "Зорро" с Антонио Бандерасом?
HANNIBALAdmin, 👍
AdminГоро, встал
ГороРаздайте, пожалуйста, Хищники / Predators (2010) BDRip 1080p [HEVC] 10 bit от HANNIBAL
AdminHANNIBAL, привет. Не помню за сколько брал, но продление в этот раз обошлось примерно в $14 со всякими комиссиями. А аренда VDS обходится примерно в $30-35 за год. Не исключено, что всё это подорожает. Пока что пожертвования с трудом покрывают расходы. Иногда если требуется и со своего кармана оплачиваю, не страшно. Прорвемся.
HANNIBALсколько сейчас стоит
HANNIBALAdmin, ПРИВЕТ
AdminНаконец-то получил банковскую карту. Продлил доменное имя (адрес сайта) на год.
  • ivan_1965
Отправка сообщений доступна только зарегистрированным/авторизованным пользователям.
Онлайн (за 10 мин.): 1

28 дней спустя... / 28 Days Later... (2002) BDRip 720p [HEVC] 10 bit от ADVOKAT69

HEVC
10 bit
Обложка 28 дней спустя... / 28 Days Later... (2002) BDRip 720p [HEVC] 10 bit от ADVOKAT69 Год: 2002
Страна: Великобритания
Студия: British Film Council
Жанр: Ужасы, Фантастика, Боевик, Драма
Продолжительность: 01:53:08

Режиссер: Дэнни Бойл
В ролях: Киллиан Мёрфи, Наоми Харрис, Брендан Глисон, Меган Бернс, Кристофер Экклстон, Алекс Палмер, Бинду Де Стоппани, Юкка Хилтунен, Дэвид Шнайдер

Описание: Группа «зеленых» экстремистов вторгается в центр исследования приматов и выпускает из секретной научной лаборатории обезьяну, зараженную вирусом неудержимой агрессии. Смертельный вирус, передающийся через кровь за считанные секунды, приводит к мгновенному заражению и, соприкоснувшись с любым живым существом, превращает его в кровожадного монстра. 28 дней спустя вся Великобритания охвачена страшной эпидемией: многие эвакуируются, другие ищут безопасные места в надежде спастись. Те, кому посчастливилось не заразиться, вместе с группой военных прячутся в заброшенном доме.


Исходник: BDRemux
Видео: 1280x696, ~1 899 Кбит/сек
Аудио1: АС3, 6 ch, 448 Kbps - Русский |Дубляж|
Аудио2: АС3, 6 ch, 448 Kbps - РусскийРусский, Одноголосый (Д. Пучков ненорматив)
Субтитры: нет

Как за пару секунд удалить ненужные аудиодорожки и субтитры (Внимание! После удаления вы не сможете поддержать раздачу)

Лог (x265 info)
x265 [info]: frame I: 1669, Avg QP:17.29 kb/s: 6993.96
x265 [info]: frame P: 33978, Avg QP:18.93 kb/s: 4294.98
x265 [info]: frame B: 127092, Avg QP:21.36 kb/s: 1190.05
x265 [info]: Weighted P-Frames: Y:7.2% UV:5.4%
x265 [info]: Weighted B-Frames: Y:5.2% UV:3.4%
x265 [info]: consecutive B-frames: 12.0% 6.2% 8.3% 26.4% 10.9% 23.1% 4.3% 4.7% 1.7% 1.6% 0.5% 0.2% 0.2%

encoded 162739 frames in 100229.51s (1.62 fps), 1897.84 kb/s, Avg QP:20.81
Медиаинфо
Общее
Уникальный идентификатор : 177131190379731547802151798993219756229 (0x854239F2F9294DF1B83A21BE164820C5)
Полное имя : D:\28 дней спустя... (2002) HEVC 10bit.mkv
Формат : Matroska
Версия формата : Version 4
Размер файла : 2,21 Гбайт
Продолжительность : 1 ч. 53 м.
Общий поток : 2 796 Кбит/сек
Дата кодирования : UTC 2021-10-26 13:54:22
Программа кодирования : mkvmerge v9.2.0 ('Photograph') 64bit
Библиотека кодирования : libebml v1.3.3 + libmatroska v1.4.4

Видео
Идентификатор : 1
Формат : HEVC
Формат/Информация : High Efficiency Video Coding
Профиль формата : Main 10@L4.1@High
Идентификатор кодека : V_MPEGH/ISO/HEVC
Продолжительность : 1 ч. 53 м.
Битрейт : 1 899 Кбит/сек
Ширина : 1 280 пикселей
Высота : 696 пикселей
Соотношение сторон : 1,85:1
Режим частоты кадров : Постоянный
Частота кадров : 23,976 (24000/1001) кадра/сек
Цветовое пространство : YUV
Субдискретизация насыщенности : 4:2:0
Битовая глубина : 10 бит
Бит/(Пиксели*Кадры) : 0.089
Размер потока : 1,50 Гбайт (68%)
Библиотека кодирования : x265 3.5+10-82786fccc:[Windows][MSVC 1929][64 bit] 10bit
Настройки программы : cpuid=1049583 / frame-threads=3 / numa-pools=8 / wpp / no-pmode / no-pme / no-psnr / no-ssim / log-level=2 / input-csp=1 / input-res=1280x696 / interlace=0 / total-frames=162739 / level-idc=41 / high-tier=1 / uhd-bd=0 / ref=5 / no-allow-non-conformance / no-repeat-headers / annexb / no-aud / no-eob / no-eos / no-hrd / info / hash=0 / no-temporal-layers / open-gop / min-keyint=24 / keyint=240 / gop-lookahead=0 / bframes=12 / b-adapt=2 / b-pyramid / bframe-bias=0 / rc-lookahead=40 / lookahead-slices=0 / scenecut=40 / hist-scenecut=0 / radl=0 / no-splice / no-intra-refresh / ctu=32 / min-cu-size=8 / rect / no-amp / max-tu-size=32 / tu-inter-depth=4 / tu-intra-depth=4 / limit-tu=1 / rdoq-level=2 / dynamic-rd=4.00 / no-ssim-rd / signhide / no-tskip / nr-intra=0 / nr-inter=0 / constrained-intra / no-strong-intra-smoothing / max-merge=3 / limit-refs=3 / limit-modes / me=3 / subme=7 / merange=57 / temporal-mvp / no-frame-dup / no-hme / weightp / weightb / no-analyze-src-pics / deblock=-2:-2 / no-sao / no-sao-non-deblock / rd=4 / selective-sao=0 / no-early-skip / rskip / no-fast-intra / no-tskip-fast / no-cu-lossless / b-intra / no-splitrd-skip / rdpenalty=0 / psy-rd=1.50 / psy-rdoq=0.70 / no-rd-refine / no-lossless / cbqpoffs=0 / crqpoffs=0 / rc=crf / crf=20.0 / qcomp=0.60 / qpstep=4 / stats-write=0 / stats-read=0 / vbv-maxrate=50000 / vbv-bufsize=50000 / vbv-init=0.9 / min-vbv-fullness=50.0 / max-vbv-fullness=80.0 / crf-max=0.0 / crf-min=0.0 / ipratio=1.40 / pbratio=1.30 / aq-mode=2 / aq-strength=0.80 / no-cutree / zone-count=0 / no-strict-cbr / qg-size=32 / no-rc-grain / qpmax=69 / qpmin=0 / no-const-vbv / sar=1 / overscan=0 / videoformat=5 / range=0 / colorprim=1 / transfer=1 / colormatrix=1 / chromaloc=0 / display-window=0 / cll=0,0 / min-luma=0 / max-luma=1023 / log2-max-poc-lsb=8 / vui-timing-info / vui-hrd-info / slices=1 / no-opt-qp-pps / no-opt-ref-list-length-pps / no-multi-pass-opt-rps / scenecut-bias=0.05 / hist-threshold=0.03 / no-opt-cu-delta-qp / no-aq-motion / no-hdr10 / no-hdr10-opt / no-dhdr10-opt / no-idr-recovery-sei / analysis-reuse-level=0 / analysis-save-reuse-level=0 / analysis-load-reuse-level=0 / scale-factor=0 / refine-intra=0 / refine-inter=0 / refine-mv=1 / refine-ctu-distortion=0 / no-limit-sao / ctu-info=0 / no-lowpass-dct / refine-analysis-type=0 / copy-pic=1 / max-ausize-factor=1.0 / no-dynamic-refine / no-single-sei / no-hevc-aq / no-svt / no-field / qp-adaptation-range=1.00 / scenecut-aware-qp=0conformance-window-offsets / right=0 / bottom=0 / decoder-max-rate=0 / no-vbv-live-multi-pass
Default : Да
Forced : Нет
Цветовой диапазон : Limited
Основные цвета : BT.709
Характеристики трансфера : BT.709
Коэффициенты матрицы : BT.709

Аудио #1
Идентификатор : 2
Формат : AC-3
Формат/Информация : Audio Coding 3
Коммерческое название : Dolby Digital
Идентификатор кодека : A_AC3
Продолжительность : 1 ч. 53 м.
Вид битрейта : Постоянный
Битрейт : 448 Кбит/сек
Каналы : 6 каналов
Channel layout : L R C LFE Ls Rs
Частота : 48,0 КГц
Частота кадров : 31,250 кадров/сек (1536 SPF)
Метод сжатия : С потерями
Размер потока : 363 Мбайт (16%)
Заголовок : Дубляж
Service kind : Complete Main
Default : Да
Forced : Нет

Аудио #2
Идентификатор : 3
Формат : AC-3
Формат/Информация : Audio Coding 3
Коммерческое название : Dolby Digital
Идентификатор кодека : A_AC3
Продолжительность : 1 ч. 53 м.
Вид битрейта : Постоянный
Битрейт : 448 Кбит/сек
Каналы : 6 каналов
Channel layout : L R C LFE Ls Rs
Частота : 48,0 КГц
Частота кадров : 31,250 кадров/сек (1536 SPF)
Метод сжатия : С потерями
Размер потока : 362 Мбайт (16%)
Заголовок : Д. Пучков ненорматив
Service kind : Complete Main
Default : Нет
Forced : Нет
Загрузка...Cкриншот1 28 дней спустя... / 28 Days Later... (2002) BDRip 720p [HEVC] 10 bit от ADVOKAT69Загрузка...Cкриншот2 28 дней спустя... / 28 Days Later... (2002) BDRip 720p [HEVC] 10 bit от ADVOKAT69Загрузка...Cкриншот3 28 дней спустя... / 28 Days Later... (2002) BDRip 720p [HEVC] 10 bit от ADVOKAT69Загрузка...Cкриншот4 28 дней спустя... / 28 Days Later... (2002) BDRip 720p [HEVC] 10 bit от ADVOKAT69
Сэмпл Торрент🧲 Магнет

Рейтинги КП и IMDB, кнопки "Позвать в чате" и "Спасибо", а также мультитрекерная статистика доступны только зарегистрированным/авторизованным пользователям!

Файлы: 1
  • 28 дней спустя... (2002) HEVC 10bit.mkv   2.21 ГБ
Поблагодарили: 10
alexyak, FijiMAX, GIS88, han-nik, Kilop77, Kiran, ko1ob, makss333, MIGRANT, Nuclear70
ADVOKAT69
134012.21 ГБ

Добавление нового комментария

Добавление комментариев доступно только зарегистрированным/авторизованным пользователям.
Аватар ADVOKAT69
  ADVOKAT69  
Бoльшая часть фильма,105 минут,снята на MiniDV-камеру Canon XL1S для большей аутентичности, поэтому практически весь BD-трансфер является, по сути, качественным студийным апскейлом. Отмотайте в конец фильма и поймёте что к чему..
Похожая фишка была применена Квентином Тарантино в фильме : Доказательство смерти / Death Proof 2007г.
Весь фильм качеством ВХС с полосами(треснувшей пленки), кляксами, дырами с кулак и прочими возможными багами, а концовка 20 минут-цифра...