💬 Мини-чат

Убедительная просьба не обсуждать тут политику.
AdminXuMuK, привет. По тихоньку. Начинает появляться немного свободного времени. В этом месяце вернусь к переделке сайта, которым несколько месяцев не занимался. Надо будет до весны закончить и обновиться.
SpartanecXuMuK, Привет Паш!
XuMuKSpartanec, Лёха, здарова, братишка
OldGamerXuMuK, https://forum.blu-ray.com/showthread.php?t=348907
XuMuKOldGamer, блин, исходник в bdvm. ещё и переупаковывать
XuMuKOldGamer, мне выдаёт только 2013 год релиза диска
OldGamerрано или поздно попадётся, там и посмотрим
OldGamerXuMuK, с форума blu-ray.com переходил по ссылкам на французские обзоры, там коллекционное издание выпустили
XuMuKOldGamer, хотя не факт, походу самопал
XuMuKOldGamer, на caps-a-holic нет такого трансфера. Но видимо есть на блютопии
OldGamerпрошлогодний французский трансфер хвалят по картинке, но в сети не встретился
OldGamerXuMuK, https://rutracker.org/forum/viewtopic.php?t=4986124
XuMuKOldGamer, ссылку хоть кинь
OldGamerXuMuK, я не сохранял исходник
XuMuKOldGamer, сэмпл-то дашь?
  • bassoutta
  • ko1ob
Отправка сообщений доступна только зарегистрированным/авторизованным пользователям.
Онлайн (за 10 мин.): 2

28 панфиловцев (2016) BDRip 1080p [HEVC] 10 bit от ADVOKAT69

HEVC
10 bit
Обложка 28 панфиловцев (2016) BDRip 1080p [HEVC] 10 bit от ADVOKAT69 Год: 2016
Страна: Россия
Студия: 28 панфиловцев
Жанр: Военный, Драма, История
Продолжительность: 02:00:38

Режиссер: Ким Дружинин, Андрей Шальопа
В ролях: Александр Устюгов, Яков Кучеревский, Азамат Нигманов, Олег Фёдоров, Алексей Морозов, Антон Кузнецов, Алексей Лонгин, Максим Белбородов, Дмитрий Мурашев, Виталий Коваленко

Описание: Осенью 1941-го года немецкие части, стоявшие возле Волоколамска, отделяло от Москвы каких-нибудь два часа по шоссе. Однако, на этом шоссе стояла 316-я стрелковая дивизия под командованием генерала И.В.Панфилова. Этот военачальник обладал настолько высоким авторитетом среди личного состава, что бойцы дивизии сами называли себя панфиловцами. А дивизию - панфиловской.


Исходник: BDRemux
Видео: 1920x804, ~4021 Кбит/сек
Аудио: DTS, 6 ch, 1509 Kbps - РусскийРусский, Оригинал
Субтитры: нет

Лог (x265 info)
x265 [info]: frame I: 1307, Avg QP:17.91 kb/s: 21608.66
x265 [info]: frame P: 41659, Avg QP:19.55 kb/s: 9825.13
x265 [info]: frame B: 130756, Avg QP:21.78 kb/s: 1994.83
x265 [info]: Weighted P-Frames: Y:12.9% UV:8.6%
x265 [info]: Weighted B-Frames: Y:9.3% UV:5.3%
x265 [info]: consecutive B-frames: 6.8% 8.5% 14.1% 40.5% 10.8% 15.3% 1.8% 1.9% 0.2% 0.1%

encoded 173722 frames in 181837.24s (0.96 fps), 4020.13 kb/s, Avg QP:21.22
Медиаинфо
Общее
Уникальный идентификатор : 216789563846083894414664012853211315283 (0xA31826B93FDB60C59EE29B82CB6C3C53)
Полное имя : D:\28 панфиловцев (2016) HEVC 10bit.mkv
Формат : Matroska
Версия формата : Version 4
Размер файла : 4,66 Гбайт
Продолжительность : 2 ч. 0 м.
Общий поток : 5 532 Кбит/сек
Дата кодирования : UTC 2022-01-12 11:33:29
Программа кодирования : mkvmerge v9.2.0 ('Photograph') 64bit
Библиотека кодирования : libebml v1.3.3 + libmatroska v1.4.4

Видео
Идентификатор : 1
Формат : HEVC
Формат/Информация : High Efficiency Video Coding
Профиль формата : Main 10@L4.1@High
Идентификатор кодека : V_MPEGH/ISO/HEVC
Продолжительность : 2 ч. 0 м.
Битрейт : 4 021 Кбит/сек
Ширина : 1 920 пикселей
Высота : 804 пикселя
Соотношение сторон : 2,40:1
Режим частоты кадров : Постоянный
Частота кадров : 24,000 кадра/сек
Цветовое пространство : YUV
Субдискретизация насыщенности : 4:2:0
Битовая глубина : 10 бит
Бит/(Пиксели*Кадры) : 0.109
Размер потока : 3,39 Гбайт (73%)
Библиотека кодирования : x265 3.5+1-ce882936d:[Windows][MSVC 1928][64 bit] 10bit
Настройки программы : cpuid=1049583 / frame-threads=3 / numa-pools=8 / wpp / no-pmode / no-pme / no-psnr / no-ssim / log-level=2 / input-csp=1 / input-res=1920x804 / interlace=0 / total-frames=173722 / level-idc=41 / high-tier=1 / uhd-bd=0 / ref=5 / no-allow-non-conformance / no-repeat-headers / annexb / no-aud / no-hrd / info / hash=0 / no-temporal-layers / open-gop / min-keyint=24 / keyint=240 / gop-lookahead=0 / bframes=9 / b-adapt=2 / b-pyramid / bframe-bias=0 / rc-lookahead=40 / lookahead-slices=4 / scenecut=40 / hist-scenecut=0 / radl=0 / no-splice / no-intra-refresh / ctu=32 / min-cu-size=8 / rect / no-amp / max-tu-size=32 / tu-inter-depth=4 / tu-intra-depth=4 / limit-tu=1 / rdoq-level=2 / dynamic-rd=4.00 / no-ssim-rd / signhide / no-tskip / nr-intra=0 / nr-inter=0 / constrained-intra / no-strong-intra-smoothing / max-merge=3 / limit-refs=3 / limit-modes / me=3 / subme=7 / merange=57 / temporal-mvp / no-frame-dup / no-hme / weightp / weightb / no-analyze-src-pics / deblock=-2:-2 / no-sao / no-sao-non-deblock / rd=4 / selective-sao=0 / no-early-skip / rskip / no-fast-intra / no-tskip-fast / no-cu-lossless / b-intra / no-splitrd-skip / rdpenalty=0 / psy-rd=1.50 / psy-rdoq=0.70 / no-rd-refine / no-lossless / cbqpoffs=0 / crqpoffs=0 / rc=crf / crf=20.0 / qcomp=0.60 / qpstep=4 / stats-write=0 / stats-read=0 / vbv-maxrate=50000 / vbv-bufsize=50000 / vbv-init=0.9 / min-vbv-fullness=50.0 / max-vbv-fullness=80.0 / crf-max=0.0 / crf-min=0.0 / ipratio=1.40 / pbratio=1.30 / aq-mode=2 / aq-strength=0.80 / no-cutree / zone-count=0 / no-strict-cbr / qg-size=32 / no-rc-grain / qpmax=69 / qpmin=0 / no-const-vbv / sar=1 / overscan=0 / videoformat=5 / range=0 / colorprim=1 / transfer=1 / colormatrix=1 / chromaloc=0 / display-window=0 / cll=0,0 / min-luma=0 / max-luma=1023 / log2-max-poc-lsb=8 / vui-timing-info / vui-hrd-info / slices=1 / no-opt-qp-pps / no-opt-ref-list-length-pps / no-multi-pass-opt-rps / scenecut-bias=0.05 / hist-threshold=0.03 / no-opt-cu-delta-qp / no-aq-motion / no-hdr10 / no-hdr10-opt / no-dhdr10-opt / no-idr-recovery-sei / analysis-reuse-level=0 / analysis-save-reuse-level=0 / analysis-load-reuse-level=0 / scale-factor=0 / refine-intra=0 / refine-inter=0 / refine-mv=1 / refine-ctu-distortion=0 / no-limit-sao / ctu-info=0 / no-lowpass-dct / refine-analysis-type=0 / copy-pic=1 / max-ausize-factor=1.0 / no-dynamic-refine / no-single-sei / no-hevc-aq / no-svt / no-field / qp-adaptation-range=1.00 / scenecut-aware-qp=0conformance-window-offsets / right=0 / bottom=0 / decoder-max-rate=0 / no-vbv-live-multi-pass
Default : Да
Forced : Нет
Цветовой диапазон : Limited
Основные цвета : BT.709
Характеристики трансфера : BT.709
Коэффициенты матрицы : BT.709

Аудио
Идентификатор : 2
Формат : DTS
Формат/Информация : Digital Theater Systems
Идентификатор кодека : A_DTS
Продолжительность : 2 ч. 0 м.
Вид битрейта : Постоянный
Битрейт : 1 509 Кбит/сек
Каналы : 6 каналов
Channel layout : C L R Ls Rs LFE
Частота : 48,0 КГц
Частота кадров : 93,750 кадра/сек (512 SPF)
Битовая глубина : 24 бит
Метод сжатия : С потерями
Размер потока : 1,27 Гбайт (27%)
Заголовок : Русский BD
Default : Да
Forced : Нет

Меню
00:00:00.000 : en:Chapter 1
00:01:24.375 : en:Chapter 2
00:11:59.208 : en:Chapter 3
00:26:15.791 : en:Chapter 4
00:38:43.625 : en:Chapter 5
00:55:16.416 : en:Chapter 6
01:12:21.333 : en:Chapter 7
01:25:35.500 : en:Chapter 8
01:38:52.333 : en:Chapter 9
Сравнение скриншотов:
https://screenshotcomparison.com/comparison/20579

Загрузка...Cкриншот1 28 панфиловцев (2016) BDRip 1080p [HEVC] 10 bit от ADVOKAT69Загрузка...Cкриншот2 28 панфиловцев (2016) BDRip 1080p [HEVC] 10 bit от ADVOKAT69Загрузка...Cкриншот3 28 панфиловцев (2016) BDRip 1080p [HEVC] 10 bit от ADVOKAT69Загрузка...Cкриншот4 28 панфиловцев (2016) BDRip 1080p [HEVC] 10 bit от ADVOKAT69
Сэмпл Торрент🧲 Магнет

Рейтинги КП и IMDB, кнопки "Позвать в чате" и "Спасибо", а также мультитрекерная статистика доступны только зарегистрированным/авторизованным пользователям!

Файлы: 1
  • 28 панфиловцев (2016) HEVC 10bit.mkv   4.66 ГБ
Поблагодарили: 4
davidoff_k4, ilyich05, makss333, mvclub
ADVOKAT69
135014.66 ГБ

Добавление нового комментария

Добавление комментариев доступно только зарегистрированным/авторизованным пользователям.
Аватар ADVOKAT69
  ADVOKAT69  
звуковая дорожка в АС3 448 Кбит/сек ---- https://disk.yandex.ua/d/cinTOpxLTT7xGg