💬 Мини-чат

Для тех, кому интересен процесс переделки сайта - https://rips.club/changelog.html (обновлен 20.04.2024)
  • justmkr
Отправка сообщений доступна только зарегистрированным/авторизованным пользователям.
Онлайн (за 10 мин.): 1

Преследователь / Chugyeokja (2008) [FRA Transfer] BDRip 1080p [HEVC] 10 bit от TaurohtaR

HEVC
10 bit
Обложка Преследователь / Chugyeokja (2008) [FRA Transfer] BDRip 1080p [HEVC] 10 bit от TaurohtaR Год: 2008
Страна: Южная Корея
Студия: Big House, Vantage Holdings, Showbox Entertainment
Жанр: Триллер, Драма, Криминал
Продолжительность: 01:59:56

Режиссер: Хонг-джин На
В ролях: Юнь-cок Ким, Юнг Ву Ха, Со Ён Хи, Ин-ги Юнг

Описание: Раньше Чун Хо служил в элитном подразделении полиции Сеула. Теперь он — обыкновенный сутенер, но в целом доволен жизнью, если бы только его «девочки по вызову» не сбегали так часто. Какие же они неблагодарные! Он выдает им авансы, жестко разбирается с клиентами-извращенцами, создает все условия для работы, но терпит убытки… Однажды Чун Хо замечает странную закономерность: всех беглянок заказывали с одного и того же телефонного номера. Его последняя девушка, Ми Чжин, как раз уехала к этому клиенту… Чун Хо не знает адреса, а связь с Ми Чжин обрывается. Он должен найти подонка, который, как он считает, продает его сотрудниц… По странному стечению обстоятельств найти преступника — зловеще-невозмутимого маньяка-убийцу оказывается легко и просто. Но «найти» еще не значит «остановить». Начинается «гонка на выживание» — жизнь девушки и ее ребенка зависит от того, кто первым найдет последнюю жертву — маньяк, полиция или сам Чун Хо.


Видео: 1920x816, ~7707 Кбит/сек
Аудио1: AC3, 6 ch, 448 Kbps - РусскийРусский, Профессиональный многоголосый закадровый (R5)
Аудио2: AC3, 6 ch, 384 Kbps - РусскийРусский, Профессиональный двухголосый закадровый
Аудио3: AC3, 6 ch, 448 Kbps - РусскийРусский, Авторский одноголосый (Ю. Сербин)
Аудио4: AC3, 6 ch, 512 Kbps - УкраинскийУкраинский, Профессиональный многоголосый закадровый (Студія "Цікава Ідея")
Аудио5: AC3, 6 ch, 640 Kbps - Корейский, Оригинал
Субтитры: русские (полные х2), английские

Как за пару секунд удалить ненужные аудиодорожки и субтитры (Внимание! После удаления вы не сможете поддержать раздачу)

Лог (x265 info)
x265 [info]: frame I: 2081, Avg QP:17.23 kb/s: 21745.45
x265 [info]: frame P: 36349, Avg QP:18.67 kb/s: 13908.69
x265 [info]: frame B: 141483, Avg QP:21.27 kb/s: 5906.36
x265 [info]: Weighted P-Frames: Y:6.7% UV:5.5%
x265 [info]: Weighted B-Frames: Y:5.9% UV:4.6%
x265 [info]: consecutive B-frames: 8.2% 4.5% 4.5% 32.7% 6.9% 36.2% 2.7% 3.7% 0.2% 0.1% 0.0% 0.1% 0.0% 0.0% 0.0% 0.0% 0.1%

encoded 179913 frames in 91721.13s (1.96 fps), 7706.33 kb/s, Avg QP:20.70
Медиаинфо
General
Unique ID : 60713958539056250770285352919868919790 (0x2DAD1544AEC7ACBB9BDBFFFE13704FEE)
Complete name : Chugyeokja (2008) [FRA Transfer] BDRip 1080p H.265 [3xRUS_UKR_KOR] [RIPS-CLUB].mkv
Format : Matroska
Format version : Version 4
File size : 8.50 GiB
Duration : 1 h 59 min
Overall bit rate : 10.1 Mb/s
Movie name : Преследователь (Охотник) / Переслідувач / The Chaser / Chugyeokja (2008)
Encoded date : UTC 2022-02-06 11:37:11
Writing application : mkvmerge v64.0.0 ('Willows') 64-bit
Writing library : libebml v1.4.2 + libmatroska v1.6.4
Cover : Yes
Attachments : Cover.jpg

Video
ID : 1
Format : HEVC
Format/Info : High Efficiency Video Coding
Format profile : Main 10@L4.1@High
Codec ID : V_MPEGH/ISO/HEVC
Duration : 1 h 59 min
Bit rate : 7 707 kb/s
Width : 1 920 pixels
Height : 816 pixels
Display aspect ratio : 2.35:1
Frame rate mode : Constant
Frame rate : 25.000 FPS
Color space : YUV
Chroma subsampling : 4:2:0
Bit depth : 10 bits
Bits/(Pixel*Frame) : 0.197
Stream size : 6.46 GiB (76%)
Title : Преследователь (Охотник) / Переслідувач / The Chaser / Chugyeokja (2008)
Writing library : x265 3.5+1-ce882936d:[Windows][MSVC 1928][64 bit] 10bit
Encoding settings : cpuid=1111039 / frame-threads=4 / numa-pools=24 / wpp / no-pmode / no-pme / no-psnr / no-ssim / log-level=2 / input-csp=1 / input-res=1920x816 / interlace=0 / total-frames=179913 / level-idc=41 / high-tier=1 / uhd-bd=0 / ref=5 / no-allow-non-conformance / no-repeat-headers / annexb / no-aud / no-hrd / info / hash=0 / no-temporal-layers / open-gop / min-keyint=24 / keyint=240 / gop-lookahead=0 / bframes=16 / b-adapt=2 / b-pyramid / bframe-bias=0 / rc-lookahead=60 / lookahead-slices=4 / scenecut=40 / hist-scenecut=0 / radl=0 / no-splice / no-intra-refresh / ctu=32 / min-cu-size=8 / rect / amp / max-tu-size=32 / tu-inter-depth=4 / tu-intra-depth=4 / limit-tu=1 / rdoq-level=2 / dynamic-rd=0.00 / no-ssim-rd / signhide / no-tskip / nr-intra=0 / nr-inter=0 / no-constrained-intra / no-strong-intra-smoothing / max-merge=5 / limit-refs=2 / limit-modes / me=3 / subme=7 / merange=57 / temporal-mvp / no-frame-dup / no-hme / weightp / weightb / no-analyze-src-pics / deblock=-3:-3 / no-sao / no-sao-non-deblock / rd=6 / selective-sao=0 / no-early-skip / no-rskip / no-fast-intra / no-tskip-fast / no-cu-lossless / no-b-intra / no-splitrd-skip / rdpenalty=0 / psy-rd=2.00 / psy-rdoq=1.00 / no-rd-refine / no-lossless / cbqpoffs=0 / crqpoffs=0 / rc=crf / crf=21.0 / qcomp=0.65 / qpstep=4 / stats-write=0 / stats-read=0 / vbv-maxrate=50000 / vbv-bufsize=50000 / vbv-init=0.9 / min-vbv-fullness=50.0 / max-vbv-fullness=80.0 / crf-max=0.0 / crf-min=0.0 / ipratio=1.40 / pbratio=1.30 / aq-mode=3 / aq-strength=1.00 / no-cutree / zone-count=0 / no-strict-cbr / qg-size=32 / no-rc-grain / qpmax=69 / qpmin=0 / no-const-vbv / sar=1 / overscan=0 / videoformat=5 / range=0 / colorprim=1 / transfer=1 / colormatrix=1 / chromaloc=0 / display-window=0 / cll=0,0 / min-luma=0 / max-luma=1023 / log2-max-poc-lsb=8 / vui-timing-info / vui-hrd-info / slices=1 / no-opt-qp-pps / no-opt-ref-list-length-pps / no-multi-pass-opt-rps / scenecut-bias=0.05 / hist-threshold=0.03 / no-opt-cu-delta-qp / no-aq-motion / no-hdr10 / no-hdr10-opt / no-dhdr10-opt / no-idr-recovery-sei / analysis-reuse-level=0 / analysis-save-reuse-level=0 / analysis-load-reuse-level=0 / scale-factor=0 / refine-intra=0 / refine-inter=0 / refine-mv=1 / refine-ctu-distortion=0 / no-limit-sao / ctu-info=0 / no-lowpass-dct / refine-analysis-type=0 / copy-pic=1 / max-ausize-factor=1.0 / no-dynamic-refine / no-single-sei / no-hevc-aq / no-svt / no-field / qp-adaptation-range=1.00 / scenecut-aware-qp=0conformance-window-offsets / right=0 / bottom=0 / decoder-max-rate=0 / no-vbv-live-multi-pass
Language : Korean
Default : Yes
Forced : Yes
Color range : Limited
Color primaries : BT.709
Transfer characteristics : BT.709
Matrix coefficients : BT.709

Audio #1
ID : 2
Format : AC-3
Format/Info : Audio Coding 3
Commercial name : Dolby Digital
Codec ID : A_AC3
Duration : 1 h 59 min
Bit rate mode : Constant
Bit rate : 448 kb/s
Channel(s) : 6 channels
Channel layout : L R C LFE Ls Rs
Sampling rate : 48.0 kHz
Frame rate : 31.250 FPS (1536 SPF)
Compression mode : Lossy
Stream size : 384 MiB (4%)
Title : AC-3 / 5.1 Ch / 448 kbps / MVO / R5
Language : Russian
Service kind : Complete Main
Default : Yes
Forced : Yes

Audio #2
ID : 3
Format : AC-3
Format/Info : Audio Coding 3
Commercial name : Dolby Digital
Codec ID : A_AC3
Duration : 1 h 59 min
Bit rate mode : Constant
Bit rate : 384 kb/s
Channel(s) : 6 channels
Channel layout : L R C LFE Ls Rs
Sampling rate : 48.0 kHz
Frame rate : 31.250 FPS (1536 SPF)
Compression mode : Lossy
Stream size : 329 MiB (4%)
Title : AC-3 / 5.1 Ch / 384 kbps / DVO
Language : Russian
Service kind : Complete Main
Default : No
Forced : No

Audio #3
ID : 4
Format : AC-3
Format/Info : Audio Coding 3
Commercial name : Dolby Digital
Codec ID : A_AC3
Duration : 1 h 59 min
Bit rate mode : Constant
Bit rate : 448 kb/s
Channel(s) : 6 channels
Channel layout : L R C LFE Ls Rs
Sampling rate : 48.0 kHz
Frame rate : 31.250 FPS (1536 SPF)
Compression mode : Lossy
Stream size : 384 MiB (4%)
Title : AC-3 / 5.1 Ch / 448 kbps / AVO / Ю. Сербин
Language : Russian
Service kind : Complete Main
Default : No
Forced : No

Audio #4
ID : 5
Format : AC-3
Format/Info : Audio Coding 3
Commercial name : Dolby Digital
Codec ID : A_AC3
Duration : 1 h 59 min
Bit rate mode : Constant
Bit rate : 512 kb/s
Channel(s) : 6 channels
Channel layout : L R C LFE Ls Rs
Sampling rate : 48.0 kHz
Frame rate : 31.250 FPS (1536 SPF)
Compression mode : Lossy
Delay relative to video : 25 ms
Stream size : 439 MiB (5%)
Title : AC-3 / 5.1 Ch / 512 kbps / MVO / Студія "Цікава Ідея"
Language : Ukrainian
Service kind : Complete Main
Default : No
Forced : No

Audio #5
ID : 6
Format : AC-3
Format/Info : Audio Coding 3
Commercial name : Dolby Digital
Codec ID : A_AC3
Duration : 1 h 59 min
Bit rate mode : Constant
Bit rate : 640 kb/s
Channel(s) : 6 channels
Channel layout : L R C LFE Ls Rs
Sampling rate : 48.0 kHz
Frame rate : 31.250 FPS (1536 SPF)
Compression mode : Lossy
Stream size : 549 MiB (6%)
Title : AC-3 / 5.1 Ch / 640 kbps / Original
Language : Korean
Service kind : Complete Main
Default : No
Forced : No

Text #1
ID : 7
Format : UTF-8
Codec ID : S_TEXT/UTF8
Codec ID/Info : UTF-8 Plain Text
Duration : 1 h 53 min
Bit rate : 55 b/s
Count of elements : 898
Stream size : 46.5 KiB (0%)
Title : Full - R5
Language : Russian
Default : No
Forced : No

Text #2
ID : 8
Format : UTF-8
Codec ID : S_TEXT/UTF8
Codec ID/Info : UTF-8 Plain Text
Duration : 1 h 54 min
Bit rate : 65 b/s
Count of elements : 1309
Stream size : 54.7 KiB (0%)
Title : Full - Ю. Сербин
Language : Russian
Default : No
Forced : No

Text #3
ID : 9
Format : UTF-8
Codec ID : S_TEXT/UTF8
Codec ID/Info : UTF-8 Plain Text
Duration : 1 h 54 min
Bit rate : 37 b/s
Count of elements : 1337
Stream size : 31.0 KiB (0%)
Title : Full
Language : English
Default : No
Forced : No

Menu
00:00:00.000 : :Start
00:10:29.680 : :The Business
00:21:32.000 : :Cops and politics
00:28:01.839 : :Fallen
00:42:30.760 : :Cop Shop
00:57:08.559 : :Searching
01:08:41.120 : :Are you really a cop?
01:18:32.800 : :The Trail
01:29:43.959 : :Daylight and Cigarettes
01:40:46.400 : :Child Alone
01:46:26.599 : :Despair leads
01:53:49.400 : :Credits
Загрузка...Cкриншот1 Преследователь / Chugyeokja (2008) [FRA Transfer] BDRip 1080p [HEVC] 10 bit от TaurohtaRЗагрузка...Cкриншот2 Преследователь / Chugyeokja (2008) [FRA Transfer] BDRip 1080p [HEVC] 10 bit от TaurohtaRЗагрузка...Cкриншот3 Преследователь / Chugyeokja (2008) [FRA Transfer] BDRip 1080p [HEVC] 10 bit от TaurohtaRЗагрузка...Cкриншот4 Преследователь / Chugyeokja (2008) [FRA Transfer] BDRip 1080p [HEVC] 10 bit от TaurohtaR
Сэмпл Торрент🧲 Магнет

Рейтинги КП и IMDB, кнопки "Позвать в чате" и "Спасибо", а также мультитрекерная статистика доступны только зарегистрированным/авторизованным пользователям!

Файлы: 1
  • Chugyeokja (2008) [FRA Transfer] BDRip 1080p H.265 [3xRUS_UKR_KOR] [RIPS-CLUB].mkv   8.5 ГБ
Поблагодарили: 6
bs158250, ilyich05, IRIT, ko1ob, makss333, normalllhuman
StarLord
1179018.5 ГБ

Добавление нового комментария

Добавление комментариев доступно только зарегистрированным/авторизованным пользователям.
Аватар не указан
  Vvulpes  
классный фильм кстати