💬 Мини-чат

Для тех, кому интересен процесс переделки сайта - https://rips.club/changelog.html (обновлен 20.04.2024)
  • justmkr
Отправка сообщений доступна только зарегистрированным/авторизованным пользователям.
Онлайн (за 10 мин.): 1

Маленький гигант большого секса (1992) BDRip 1080p [HEVC] 10 bit от Giggalo

HEVC
10 bit
Обложка Маленький гигант большого секса (1992) BDRip 1080p [HEVC] 10 bit от Giggalo Год: 1992
Страна: Россия
Студия: Круг, Мосфильм
Жанр: Комедия
Продолжительность: 01:22:00

Режиссер: Николай Досталь
В ролях: Ирина Розанова, Ирэна Кокрятская, Ирина Сабанова, Елена Зорина, Александр Берда, Владимир Кашпур, Геннадий Хазанов

Описание: По мотивам повести Ф. Искандера «О, Марат!». Герой фильма живет в курортном городе на берегу Черного моря и работает фотографом на пляже. Ни одна женщина не может устоять перед его неотразимым обаянием. Но все-таки однажды он потерпел фиаско...


Исходник: Blu-ray
Видео: 1424x1080, ~7 325 Кбит/сек
Аудио1: AC3, 6 ch, 640 Kbps - Русский
Аудио2: AC3, 6 ch, 448 Kbps - Русский
Субтитры: Нет

Как за пару секунд удалить ненужные аудиодорожки и субтитры (Внимание! После удаления вы не сможете поддержать раздачу)

Медиаинфо
Общее
Уникальный идентификатор : 261082910153113319207245634953811766468 (0xC46ABD4D753B5D2479FF1503629AACC4)
Полное имя : D:\torrent\Маленький гигант большого cекса. 1992 (BDRip-HEVC 1080p).mkv
Формат : Matroska
Версия формата : Version 4
Размер файла : 4,82 Гбайт
Продолжительность : 1 ч. 22 м.
Общий поток : 8 415 Кбит/сек
Дата кодирования : UTC 2022-02-06 12:35:44
Программа кодирования : mkvmerge v55.0.0 ('Waiting For Space') 64-bit
Библиотека кодирования : libebml v1.4.2 + libmatroska v1.6.4
Обложка : Yes
Attachments : cover.jpg

Видео
Идентификатор : 1
Формат : HEVC
Формат/Информация : High Efficiency Video Coding
Профиль формата : Main 10@L4.1@High
Идентификатор кодека : V_MPEGH/ISO/HEVC
Продолжительность : 1 ч. 22 м.
Битрейт : 7 325 Кбит/сек
Ширина : 1 424 пикселя
Высота : 1 080 пикселей
Соотношение сторон : 4:3
Режим частоты кадров : Постоянный
Частота кадров : 23,976 (23976/1000) кадра/сек
Частота кадров в оригинале : 23,976 (24000/1001) кадра/сек
Цветовое пространство : YUV
Субдискретизация насыщенности : 4:2:0
Битовая глубина : 10 бит
Бит/(Пиксели*Кадры) : 0.199
Размер потока : 4,20 Гбайт (87%)
Библиотека кодирования : x265 3.4+1-7b120308dc64:[Windows][GCC 10.1.0][64 bit] 10bit
Настройки программы : cpuid=1111039 / frame-threads=3 / numa-pools=12 / wpp / no-pmode / no-pme / no-psnr / no-ssim / log-level=2 / input-csp=1 / input-res=1424x1080 / interlace=0 / total-frames=117962 / level-idc=41 / high-tier=1 / uhd-bd=0 / ref=5 / no-allow-non-conformance / no-repeat-headers / annexb / no-aud / no-hrd / info / hash=0 / no-temporal-layers / open-gop / min-keyint=23 / keyint=240 / gop-lookahead=0 / bframes=9 / b-adapt=2 / b-pyramid / bframe-bias=0 / rc-lookahead=60 / lookahead-slices=4 / scenecut=40 / hist-scenecut=0 / radl=0 / no-splice / no-intra-refresh / ctu=32 / min-cu-size=8 / rect / amp / max-tu-size=32 / tu-inter-depth=4 / tu-intra-depth=4 / limit-tu=1 / rdoq-level=2 / dynamic-rd=0.00 / no-ssim-rd / signhide / no-tskip / nr-intra=0 / nr-inter=0 / no-constrained-intra / no-strong-intra-smoothing / max-merge=5 / limit-refs=2 / limit-modes / me=3 / subme=7 / merange=57 / temporal-mvp / no-frame-dup / no-hme / weightp / weightb / no-analyze-src-pics / deblock=-3:-3 / no-sao / no-sao-non-deblock / rd=6 / selective-sao=0 / no-early-skip / no-rskip / no-fast-intra / no-tskip-fast / no-cu-lossless / no-b-intra / no-splitrd-skip / rdpenalty=0 / psy-rd=2.00 / psy-rdoq=1.00 / no-rd-refine / no-lossless / cbqpoffs=0 / crqpoffs=0 / rc=crf / crf=21.0 / qcomp=0.60 / qpstep=4 / stats-write=0 / stats-read=0 / vbv-maxrate=50000 / vbv-bufsize=50000 / vbv-init=0.9 / crf-max=0.0 / crf-min=0.0 / ipratio=1.40 / pbratio=1.30 / aq-mode=1 / aq-strength=1.00 / no-cutree / zone-count=0 / no-strict-cbr / qg-size=32 / no-rc-grain / qpmax=69 / qpmin=0 / no-const-vbv / sar=1 / overscan=0 / videoformat=5 / range=0 / colorprim=1 / transfer=1 / colormatrix=1 / chromaloc=0 / display-window=0 / cll=0,0 / min-luma=0 / max-luma=1023 / log2-max-poc-lsb=8 / vui-timing-info / vui-hrd-info / slices=1 / no-opt-qp-pps / no-opt-ref-list-length-pps / no-multi-pass-opt-rps / scenecut-bias=0.05 / hist-threshold=0.03 / no-opt-cu-delta-qp / no-aq-motion / no-hdr10 / no-hdr10-opt / no-dhdr10-opt / no-idr-recovery-sei / analysis-reuse-level=0 / analysis-save-reuse-level=0 / analysis-load-reuse-level=0 / scale-factor=0 / refine-intra=0 / refine-inter=0 / refine-mv=1 / refine-ctu-distortion=0 / no-limit-sao / ctu-info=0 / no-lowpass-dct / refine-analysis-type=0 / copy-pic=1 / max-ausize-factor=1.0 / no-dynamic-refine / no-single-sei / no-hevc-aq / no-svt / no-field / qp-adaptation-range=1.00 / no-scenecut-aware-qpconformance-window-offsets / right=0 / bottom=0 / decoder-max-rate=0
Default : Да
Forced : Нет
Цветовой диапазон : Limited
Основные цвета : BT.709
Характеристики трансфера : BT.709
Коэффициенты матрицы : BT.709

Аудио #1
Идентификатор : 2
Формат : AC-3
Формат/Информация : Audio Coding 3
Коммерческое название : Dolby Digital
Идентификатор кодека : A_AC3
Продолжительность : 1 ч. 22 м.
Вид битрейта : Постоянный
Битрейт : 640 Кбит/сек
Каналы : 6 каналов
Channel layout : L R C LFE Ls Rs
Частота : 48,0 КГц
Частота кадров : 31,250 кадров/сек (1536 SPF)
Метод сжатия : С потерями
Размер потока : 375 Мбайт (8%)
Язык : Russian
Service kind : Complete Main
Default : Да
Forced : Нет

Аудио #2
Идентификатор : 3
Формат : AC-3
Формат/Информация : Audio Coding 3
Коммерческое название : Dolby Digital
Идентификатор кодека : A_AC3
Продолжительность : 1 ч. 21 м.
Вид битрейта : Постоянный
Битрейт : 448 Кбит/сек
Каналы : 6 каналов
Channel layout : L R C LFE Ls Rs
Частота : 48,0 КГц
Частота кадров : 31,250 кадров/сек (1536 SPF)
Метод сжатия : С потерями
Размер потока : 263 Мбайт (5%)
Язык : Russian
Service kind : Complete Main
Default : Нет
Forced : Нет
Загрузка...Cкриншот1 Маленький гигант большого секса (1992) BDRip 1080p [HEVC] 10 bit от GiggaloЗагрузка...Cкриншот2 Маленький гигант большого секса (1992) BDRip 1080p [HEVC] 10 bit от GiggaloЗагрузка...Cкриншот3 Маленький гигант большого секса (1992) BDRip 1080p [HEVC] 10 bit от GiggaloЗагрузка...Cкриншот4 Маленький гигант большого секса (1992) BDRip 1080p [HEVC] 10 bit от Giggalo
Сэмпл Торрент🧲 Магнет

Рейтинги КП и IMDB, кнопки "Позвать в чате" и "Спасибо", а также мультитрекерная статистика доступны только зарегистрированным/авторизованным пользователям!

Файлы: 1
  • Маленький гигант большого cекса. 1992 (BDRip-HEVC 1080p).mkv   4.82 ГБ
Поблагодарили: 4
cannabisonair, ilyich05, IRIT, potop
Giggalo
220004.82 ГБ

Добавление нового комментария

Добавление комментариев доступно только зарегистрированным/авторизованным пользователям.
Аватар OldGamer
  OldGamer  
В оригинале первая дорожка DTS-HD MA 5.1, которую конвертировали. Вторую, скорее всего, просто не удалили, она тоже в оригинале есть.
Аватар Diman
  Diman  
2 русских АС3 зачем? Просто разный битрейт или в чем-то есть отличия?