💬 Мини-чат

Для тех, кому интересен процесс переделки сайта - https://rips.club/changelog.html (обновлен 20.04.2024)
Отправка сообщений доступна только зарегистрированным/авторизованным пользователям.
Онлайн (за 10 мин.): 0

Обитель зла: Бесконечная тьма / Resident Evil: Infinite Darkness (2021) [Сезон 1] BDRip 1080p [HEVC] 10 bit от ADVOKAT69

HEVC
10 bit
Обложка Обитель зла: Бесконечная тьма / Resident Evil: Infinite Darkness (2021) [Сезон 1] BDRip 1080p [HEVC] 10 bit от ADVOKAT69 Год: 2021
Страна: Япония, США
Студия: Capcom Company, Netflix
Жанр: Аниме, Мультфильм, Ужасы, Боевик
Продолжительность: 01:43:56

Режиссер: Эйитиро Хасуми
В ролях: Ник Апостолидес, Стефани Паниселло, Джона Сяо, Рэй Чейз, Билли Каметц, Даг Стоун, Джо Томас, Брэд Венейбл

Описание: 2006 год. Леон Кеннеди прибывает в Белый дом расследовать хакерскую атаку и на месте застает очередной прорыв зомби, вскоре успешно подавленный. Там же Леон встречает Клэр Редфилд, у которой назначена встреча с только что погибшим пресс-секретарём, а также имеются сведения об аналогичном прорыве Ти-вируса в Панамстане несколько лет назад. Кажется, что это — часть чьего-то зловещего плана.


Исходник: BDRemux
Видео: 1920x1036, ~3321-4568 Кбит/сек
Аудио: AC3, 6 ch, 384 Kbps - РусскийРусский, MVO (TVShows)
Субтитры: русские (форсированные)

Лог (x265 info)
x265 [info]: frame I: 308, Avg QP:16.19 kb/s: 18596.23
x265 [info]: frame P: 7559, Avg QP:17.94 kb/s: 10374.24
x265 [info]: frame B: 28679, Avg QP:20.37 kb/s: 2360.40
x265 [info]: Weighted P-Frames: Y:7.5% UV:6.2%
x265 [info]: Weighted B-Frames: Y:7.7% UV:5.8%
x265 [info]: consecutive B-frames: 8.8% 5.9% 6.0% 36.8% 7.5% 23.3% 3.5% 3.8% 1.9% 0.8% 0.6% 0.6% 0.6%

encoded 36546 frames in 27608.13s (1.32 fps), 4154.77 kb/s, Avg QP:19.83
Медиаинфо
Общее
Уникальный идентификатор : 202900423964358875142687772010843721187 (0x98A53341E45B63E5B17FE9774523CDE3)
Полное имя : D:\1.серия.mkv
Формат : Matroska
Версия формата : Version 4
Размер файла : 824 Мбайт
Продолжительность : 25 м. 22 с.
Общий поток : 4 540 Кбит/сек
Дата кодирования : UTC 2022-02-07 16:56:06
Программа кодирования : mkvmerge v9.2.0 ('Photograph') 64bit
Библиотека кодирования : libebml v1.3.3 + libmatroska v1.4.4 / Lavf58.76.100

Видео
Идентификатор : 1
Формат : HEVC
Формат/Информация : High Efficiency Video Coding
Профиль формата : Main 10@L4.1@High
Идентификатор кодека : V_MPEGH/ISO/HEVC
Продолжительность : 25 м. 22 с.
Битрейт : 4 156 Кбит/сек
Ширина : 1 920 пикселей
Высота : 1 036 пикселей
Соотношение сторон : 1,85:1
Режим частоты кадров : Постоянный
Частота кадров : 24,000 кадра/сек
Цветовое пространство : YUV
Субдискретизация насыщенности : 4:2:0
Битовая глубина : 10 бит
Бит/(Пиксели*Кадры) : 0.087
Размер потока : 754 Мбайт (92%)
Библиотека кодирования : x265 3.5+20-17839cc0d:[Windows][MSVC 1930][64 bit] 10bit
Настройки программы : cpuid=1049583 / frame-threads=3 / numa-pools=8 / wpp / no-pmode / no-pme / no-psnr / no-ssim / log-level=2 / input-csp=1 / input-res=1920x1036 / interlace=0 / total-frames=36546 / level-idc=41 / high-tier=1 / uhd-bd=0 / ref=5 / no-allow-non-conformance / no-repeat-headers / annexb / no-aud / no-eob / no-eos / no-hrd / info / hash=0 / no-temporal-layers / open-gop / min-keyint=24 / keyint=240 / gop-lookahead=0 / bframes=12 / b-adapt=2 / b-pyramid / bframe-bias=0 / rc-lookahead=40 / lookahead-slices=4 / scenecut=40 / no-hist-scenecut / radl=0 / no-splice / no-intra-refresh / ctu=32 / min-cu-size=8 / rect / no-amp / max-tu-size=32 / tu-inter-depth=4 / tu-intra-depth=4 / limit-tu=1 / rdoq-level=2 / dynamic-rd=4.00 / no-ssim-rd / signhide / no-tskip / nr-intra=0 / nr-inter=0 / constrained-intra / no-strong-intra-smoothing / max-merge=3 / limit-refs=3 / limit-modes / me=3 / subme=7 / merange=57 / temporal-mvp / no-frame-dup / no-hme / weightp / weightb / no-analyze-src-pics / deblock=-2:-2 / no-sao / no-sao-non-deblock / rd=4 / selective-sao=0 / no-early-skip / rskip / no-fast-intra / no-tskip-fast / no-cu-lossless / b-intra / no-splitrd-skip / rdpenalty=0 / psy-rd=1.50 / psy-rdoq=0.70 / no-rd-refine / no-lossless / cbqpoffs=0 / crqpoffs=0 / rc=crf / crf=20.0 / qcomp=0.60 / qpstep=4 / stats-write=0 / stats-read=0 / vbv-maxrate=50000 / vbv-bufsize=50000 / vbv-init=0.9 / min-vbv-fullness=50.0 / max-vbv-fullness=80.0 / crf-max=0.0 / crf-min=0.0 / ipratio=1.40 / pbratio=1.30 / aq-mode=2 / aq-strength=0.80 / no-cutree / zone-count=0 / no-strict-cbr / qg-size=32 / no-rc-grain / qpmax=69 / qpmin=0 / no-const-vbv / sar=1 / overscan=0 / videoformat=5 / range=0 / colorprim=1 / transfer=1 / colormatrix=1 / chromaloc=0 / display-window=0 / cll=0,0 / min-luma=0 / max-luma=1023 / log2-max-poc-lsb=8 / vui-timing-info / vui-hrd-info / slices=1 / no-opt-qp-pps / no-opt-ref-list-length-pps / no-multi-pass-opt-rps / scenecut-bias=0.05 / hist-threshold=0.03 / no-opt-cu-delta-qp / no-aq-motion / no-hdr10 / no-hdr10-opt / no-dhdr10-opt / no-idr-recovery-sei / analysis-reuse-level=0 / analysis-save-reuse-level=0 / analysis-load-reuse-level=0 / scale-factor=0 / refine-intra=0 / refine-inter=0 / refine-mv=1 / refine-ctu-distortion=0 / no-limit-sao / ctu-info=0 / no-lowpass-dct / refine-analysis-type=0 / copy-pic=1 / max-ausize-factor=1.0 / no-dynamic-refine / no-single-sei / no-hevc-aq / no-svt / no-field / qp-adaptation-range=1.00 / scenecut-aware-qp=0conformance-window-offsets / right=0 / bottom=0 / decoder-max-rate=0 / no-vbv-live-multi-pass
Default : Да
Forced : Нет
Цветовой диапазон : Limited
Основные цвета : BT.709
Характеристики трансфера : BT.709
Коэффициенты матрицы : BT.709

Аудио
Идентификатор : 2
Формат : AC-3
Формат/Информация : Audio Coding 3
Коммерческое название : Dolby Digital
Идентификатор кодека : A_AC3
Продолжительность : 25 м. 17 с.
Вид битрейта : Постоянный
Битрейт : 384 Кбит/сек
Каналы : 6 каналов
Channel layout : L R C LFE Ls Rs
Частота : 48,0 КГц
Частота кадров : 31,250 кадров/сек (1536 SPF)
Метод сжатия : С потерями
Задержка видео : 5 с. 216 мс.
Размер потока : 69,5 Мбайт (8%)
Заголовок : TVShows | RUS
Service kind : Complete Main
Default : Да
Forced : Нет

Текст
Идентификатор : 3
Формат : UTF-8
Идентификатор кодека : S_TEXT/UTF8
Идентификатор кодека/Информация : UTF-8 Plain Text
Продолжительность : 23 м. 4 с.
Битрейт : 3 бит/сек
Count of elements : 6
Размер потока : 533 байт (0%)
Заголовок : Rus Forced
Default : Да
Forced : Нет

Меню
00:00:00.000 : en:Chapter 01
00:04:22.804 : en:Chapter 02
00:12:33.210 : en:Chapter 03
00:23:17.020 : en:Chapter 04
Загрузка...Cкриншот1 Обитель зла: Бесконечная тьма / Resident Evil: Infinite Darkness (2021) [Сезон 1] BDRip 1080p [HEVC] 10 bit от ADVOKAT69Загрузка...Cкриншот2 Обитель зла: Бесконечная тьма / Resident Evil: Infinite Darkness (2021) [Сезон 1] BDRip 1080p [HEVC] 10 bit от ADVOKAT69Загрузка...Cкриншот3 Обитель зла: Бесконечная тьма / Resident Evil: Infinite Darkness (2021) [Сезон 1] BDRip 1080p [HEVC] 10 bit от ADVOKAT69Загрузка...Cкриншот4 Обитель зла: Бесконечная тьма / Resident Evil: Infinite Darkness (2021) [Сезон 1] BDRip 1080p [HEVC] 10 bit от ADVOKAT69
Сэмпл Торрент🧲 Магнет

Раздача обновлена!
Добавлен эпизод 4.

Рейтинги КП и IMDB, кнопки "Позвать в чате" и "Спасибо", а также мультитрекерная статистика доступны только зарегистрированным/авторизованным пользователям!

Файлы: 4
  • Обитель зла Бесконечная тьма (2021)
    • 1.серия.mkv   824.14 МБ
    • 2.серия.mkv   789.96 МБ
    • 3.серия.mkv   660.63 МБ
    • 4.серия.mkv   991.37 МБ
Поблагодарили: 9
denisptp4, ganjadevine, Guga, han-nik, ilyich05, Nuclear70, slavjanin, TaurohtaR, Тренер по Йоге
ADVOKAT69
33900 (4)  3.19 ГБ

Добавление нового комментария

Добавление комментариев доступно только зарегистрированным/авторизованным пользователям.
Аватар не указан
  Ankoe080  
Пожалуйста, большая просьба, сделай "Остров смерти"! Там дубляж вышел! Пожалуйста, в Full HD, очень надо!
Аватар ADVOKAT69
  ADVOKAT69  
Admin писал(а):
Переоформил из антологии в сериал.
Спасибо!
Аватар Admin
  Admin  
Переоформил из антологии в сериал.