💬 Мини-чат

Убедительная просьба не обсуждать тут политику.
МичманADVOKAT69, ✋
ADVOKAT69Spartanec1308, ✋
AlexTwittAdmin, странно, что только на 1 часть 😃
AdminРелизы Гоголь - старые. Просто вытащил из антологии, так как на первую часть пришла жалоба, и придется заблокировать.
  • JackShredder
Отправка сообщений доступна только зарегистрированным/авторизованным пользователям.
Онлайн (за 10 мин.): 1

Фантастическая четвёрка: Вторжение Серебряного серфера / 4: Rise of the Silver Surfer (2007) BDRip 1080p [HEVC] 10 bit от OldGamer (RG RIPS CLUB)

HEVC
10 bit
Обложка Фантастическая четвёрка: Вторжение Серебряного серфера / 4: Rise of the Silver Surfer (2007) BDRip 1080p [HEVC] 10 bit от OldGamer (RG RIPS CLUB) Год: 2007
Страна: США, Германия, Великобритания
Студия: 1492 Pictures, 20th Century Fox Film Corporation, Constantin Film Produktion GmbH, Dune Entertainment, Ingenious Film Partners, Marvel Studios Inc.
Жанр: Фантастика, Фэнтези, Боевик, Приключения
Продолжительность: 01:31:51

Режиссер: Тим Стори
В ролях: Йоан Гриффит, Джессика Альба, Крис Эванс, Майкл Чиклис, Джулиан МакМэхон, Даг Джонс, Лоренс Фишбёрн, Керри Вашингтон, Андре Брауэр, Бо Гарретт

Описание: Фантастическая четвёрка получает вызов со стороны великого и могучего Серебряного Серфера - таинственного межгалактического вестника, который прилетает на Землю, чтобы подготовить её к полному разрушению. Пока Серебряный Серфер носится по всему земному шару, разрушая всё на своём пути, Рид, Сью, Джонни и Бен должны разгадать его тайну и найти способ противостоять внезапному появлению их смертельного врага - доктора Дума.


Исходник: Blu-Ray Remux 1080p (rutracker)
Видео: 1920x800 (2.40:1), 10,2 Мбит/сек, HEVC (Main10@L.4.1@High)
Аудио1: AC3, 6 ch, 640 Kbps - РусскийРусский, DUB
Аудио2: AC3, 6 ch, 640 Kbps - EnglishEnglish, Original
Субтитры: русские, английские

Как за пару секунд удалить ненужные аудиодорожки и субтитры (Внимание! После удаления вы не сможете поддержать раздачу)

Лог (x265 info)
x265 [info]: frame I: 560, Avg QP:17.30 kb/s: 24429.35
x265 [info]: frame P: 26180, Avg QP:18.87 kb/s: 18087.87
x265 [info]: frame B: 105399, Avg QP:20.56 kb/s: 8185.14
x265 [info]: Weighted P-Frames: Y:9.4% UV:6.8%
x265 [info]: Weighted B-Frames: Y:8.7% UV:5.7%
x265 [info]: consecutive B-frames: 3.9% 5.1% 6.7% 32.6% 9.7% 27.3% 4.6% 7.8% 1.0% 0.7% 0.1% 0.2% 0.0% 0.0% 0.1%
x265 [info]: encoded 132139 frames in 109010.18s (1.21 fps), 10215.96 kb/s, Avg QP:20.21
Медиаинфо
Общее
Уникальный идентификатор : 289835050404728532353547570623890027050 (0xDA0C3343A200FFC5849487CFBBCB722A)
Полное имя : \\.\Фантастическая.четверка.Вторжение.Серебряного.серфера.4.Rise.of.the.Silver.Surfer.2007.BDRip-HEVC.1080p.mkv
Формат : Matroska
Версия формата : Version 4
Размер файла : 7,38 Гбайт
Продолжительность : 1 ч. 31 м.
Общий поток : 11,5 Мбит/сек
Название фильма : Фантастическая.четверка.Вторжение.Серебряного.серфера.4.Rise.of.the.Silver.Surfer.2007.BDRip-HEVC.1080p
Дата кодирования : UTC 2022-08-02 12:57:29
Программа кодирования : mkvmerge v69.0.0 ('Day And Age') 64-bit
Библиотека кодирования : libebml v1.4.2 + libmatroska v1.6.4

Видео
Идентификатор : 1
Формат : HEVC
Формат/Информация : High Efficiency Video Coding
Профиль формата : Main 10@L4.1@High
Идентификатор кодека : V_MPEGH/ISO/HEVC
Продолжительность : 1 ч. 31 м.
Битрейт : 10,2 Мбит/сек
Ширина : 1 920 пикселей
Высота : 800 пикселей
Соотношение сторон : 2,40:1
Режим частоты кадров : Постоянный
Частота кадров : 23,976 (24000/1001) кадра/сек
Цветовое пространство : YUV
Субдискретизация насыщенности : 4:2:0
Битовая глубина : 10 бит
Бит/(Пиксели*Кадры) : 0.277
Размер потока : 6,56 Гбайт (89%)
Заголовок : 4: Rise of the Silver Surfer / Rip by OldGamer
Библиотека кодирования : x265 3.5+35-e3713124d:[Windows][GCC 11.2.0][64 bit] 10bit
Настройки программы : cpuid=1111039 / frame-threads=3 / numa-pools=8 / wpp / no-pmode / no-pme / no-psnr / no-ssim / log-level=2 / input-csp=1 / input-res=1920x800 / interlace=0 / total-frames=132139 / level-idc=41 / high-tier=1 / uhd-bd=0 / ref=5 / no-allow-non-conformance / no-repeat-headers / annexb / no-aud / no-eob / no-eos / no-hrd / info / hash=0 / no-temporal-layers / open-gop / min-keyint=23 / keyint=240 / gop-lookahead=0 / bframes=14 / b-adapt=2 / b-pyramid / bframe-bias=0 / rc-lookahead=40 / lookahead-slices=0 / scenecut=40 / no-hist-scenecut / radl=0 / no-splice / no-intra-refresh / ctu=32 / min-cu-size=8 / rect / amp / max-tu-size=32 / tu-inter-depth=4 / tu-intra-depth=4 / limit-tu=1 / rdoq-level=2 / dynamic-rd=0.00 / no-ssim-rd / signhide / no-tskip / nr-intra=0 / nr-inter=0 / no-constrained-intra / no-strong-intra-smoothing / max-merge=5 / limit-refs=3 / no-limit-modes / me=3 / subme=7 / merange=57 / temporal-mvp / no-frame-dup / no-hme / weightp / weightb / no-analyze-src-pics / deblock=-2:-2 / no-sao / no-sao-non-deblock / rd=6 / selective-sao=0 / no-early-skip / no-rskip / no-fast-intra / no-tskip-fast / no-cu-lossless / b-intra / no-splitrd-skip / rdpenalty=0 / psy-rd=2.00 / psy-rdoq=1.00 / no-rd-refine / no-lossless / cbqpoffs=0 / crqpoffs=0 / rc=crf / crf=19.4 / qcomp=0.75 / qpstep=4 / stats-write=0 / stats-read=0 / vbv-maxrate=50000 / vbv-bufsize=50000 / vbv-init=0.9 / min-vbv-fullness=50.0 / max-vbv-fullness=80.0 / crf-max=0.0 / crf-min=0.0 / ipratio=1.40 / pbratio=1.30 / aq-mode=1 / aq-strength=1.00 / no-cutree / zone-count=1 / zones: / start-frame=125184 / end-frame=132139 / qp=36 / no-strict-cbr / qg-size=32 / no-rc-grain / qpmax=69 / qpmin=0 / no-const-vbv / sar=1 / overscan=0 / videoformat=5 / range=0 / colorprim=2 / transfer=2 / colormatrix=2 / chromaloc=0 / display-window=0 / cll=0,0 / min-luma=0 / max-luma=1023 / log2-max-poc-lsb=8 / vui-timing-info / vui-hrd-info / slices=1 / no-opt-qp-pps / no-opt-ref-list-length-pps / no-multi-pass-opt-rps / scenecut-bias=0.00 / hist-threshold=0.03 / no-opt-cu-delta-qp / no-aq-motion / no-hdr10 / no-hdr10-opt / no-dhdr10-opt / no-idr-recovery-sei / analysis-reuse-level=0 / analysis-save-reuse-level=0 / analysis-load-reuse-level=0 / scale-factor=0 / refine-intra=0 / refine-inter=0 / refine-mv=1 / refine-ctu-distortion=0 / no-limit-sao / ctu-info=0 / no-lowpass-dct / refine-analysis-type=0 / copy-pic=1 / max-ausize-factor=1.0 / no-dynamic-refine / no-single-sei / no-hevc-aq / no-svt / no-field / qp-adaptation-range=1.00 / scenecut-aware-qp=0conformance-window-offsets / right=0 / bottom=0 / decoder-max-rate=0 / no-vbv-live-multi-pass
Язык : English
Default : Да
Forced : Нет

Аудио #1
Идентификатор : 2
Формат : AC-3
Формат/Информация : Audio Coding 3
Коммерческое название : Dolby Digital
Идентификатор кодека : A_AC3
Продолжительность : 1 ч. 31 м.
Вид битрейта : Постоянный
Битрейт : 640 Кбит/сек
Каналы : 6 каналов
Channel layout : L R C LFE Ls Rs
Частота : 48,0 КГц
Частота кадров : 31,250 кадров/сек (1536 SPF)
Метод сжатия : С потерями
Размер потока : 420 Мбайт (6%)
Язык : Russian
Service kind : Complete Main
Default : Да
Forced : Нет

Аудио #2
Идентификатор : 3
Формат : AC-3
Формат/Информация : Audio Coding 3
Коммерческое название : Dolby Digital
Идентификатор кодека : A_AC3
Продолжительность : 1 ч. 31 м.
Вид битрейта : Постоянный
Битрейт : 640 Кбит/сек
Каналы : 6 каналов
Channel layout : L R C LFE Ls Rs
Частота : 48,0 КГц
Частота кадров : 31,250 кадров/сек (1536 SPF)
Метод сжатия : С потерями
Размер потока : 420 Мбайт (6%)
Язык : English
Service kind : Complete Main
Default : Нет
Forced : Нет

Текст #1
Идентификатор : 4
Формат : UTF-8
Идентификатор кодека : S_TEXT/UTF8
Идентификатор кодека/Информация : UTF-8 Plain Text
Продолжительность : 1 ч. 24 м.
Битрейт : 86 бит/сек
Частота кадров : 0,185 кадр/сек
Count of elements : 937
Размер потока : 53,4 Кбайт (0%)
Язык : Russian
Default : Нет
Forced : Нет

Текст #2
Идентификатор : 5
Формат : UTF-8
Идентификатор кодека : S_TEXT/UTF8
Идентификатор кодека/Информация : UTF-8 Plain Text
Продолжительность : 1 ч. 28 м.
Битрейт : 47 бит/сек
Частота кадров : 0,166 кадр/сек
Count of elements : 881
Размер потока : 30,6 Кбайт (0%)
Язык : English
Default : Нет
Forced : Нет

Меню
00:00:00.000 : From Beyond
00:05:58.733 : Wedding Issues
00:09:43.457 : The Bachelor Party
00:13:48.327 : Security Threat
00:18:14.635 : Wedding of the Century
00:23:24.110 : The Ceremony
00:26:46.187 : The Silver Surfer
00:31:32.015 : Something Highly Resourceful
00:33:35.054 : Power Switch
00:37:05.598 : Like Normal People
00:38:33.936 : All That You Know is at an End
00:40:25.464 : Eight Days Later...
00:41:50.507 : London Falling
00:45:39.653 : The New Doom
00:48:31.158 : Out of Our Hands
00:50:12.259 : Tachyon Pulse
00:53:58.818 : The Nerd Rises
00:55:33.413 : He's Here...
01:00:11.441 : Prisoners
01:02:20.903 : The Devourer of Worlds
01:06:05.044 : Unlimited Powers
01:09:24.994 : The World at Stake
01:12:35.350 : Doom From Above
01:15:29.858 : The Power of Four
01:18:00.550 : The Surfer's Choice
01:23:15.323 : A Team
01:24:34.736 : Fifth Time's the Charm
01:26:29.142 : End Titles
01:31:49.503 : End
Загрузка...Cкриншот1 Фантастическая четвёрка: Вторжение Серебряного серфера / 4: Rise of the Silver Surfer (2007) BDRip 1080p [HEVC] 10 bit от OldGamer (RG RIPS CLUB)Загрузка...Cкриншот2 Фантастическая четвёрка: Вторжение Серебряного серфера / 4: Rise of the Silver Surfer (2007) BDRip 1080p [HEVC] 10 bit от OldGamer (RG RIPS CLUB)Загрузка...Cкриншот3 Фантастическая четвёрка: Вторжение Серебряного серфера / 4: Rise of the Silver Surfer (2007) BDRip 1080p [HEVC] 10 bit от OldGamer (RG RIPS CLUB)Загрузка...Cкриншот4 Фантастическая четвёрка: Вторжение Серебряного серфера / 4: Rise of the Silver Surfer (2007) BDRip 1080p [HEVC] 10 bit от OldGamer (RG RIPS CLUB)
Релиз-группа: RIPS CLUB
Сэмпл Торрент🧲 Магнет

Рейтинги КП и IMDB, кнопки "Позвать в чате" и "Спасибо", а также мультитрекерная статистика доступны только зарегистрированным/авторизованным пользователям!

Файлы: 1
  • Фантастическая.четверка.Вторжение.Серебряного.серфера.4.Rise.of.the.Silver.Surfer.2007.BDRip-HEVC.1080p.mkv   7.38 ГБ
Поблагодарили: 7
alexyak, Elico1977, ilyich05, Kiran, Nuclear70, SergKote, Горо
OldGamer
0172717.38 ГБ

Добавление нового комментария

Добавление комментариев доступно только зарегистрированным/авторизованным пользователям.