💬 Мини-чат

Для тех, кому интересен процесс переделки сайта - https://rips.club/changelog.html (обновлен 20.04.2024)
  • justmkr
Отправка сообщений доступна только зарегистрированным/авторизованным пользователям.
Онлайн (за 10 мин.): 1

Собачья жизнь 2 / A Dog's Journey (2019) BDRip 1080p [HEVC] 10 bit от Spartanec

HEVC
10 bit
Обложка Собачья жизнь 2 / A Dog's Journey (2019) BDRip 1080p [HEVC] 10 bit от Spartanec Год: 2019
Страна: США, Китай, Гонконг, Индия
Студия: DreamWorks, Walden Media, Amblin Entertainment
Жанр: Фэнтези, Драма, Комедия, Приключения
Продолжительность: 01:48:39

Режиссер: Гейл Манкусо
В ролях: Дэннис Куэйд, Эбби Райдер Фортсон, Бетти Гилпин, Кэтрин Прескотт, Марг Хельгенбергер, Джош Гэд, Джейк Мэнли, Даниэла Барбоза, Йен Чен, Генри Лау, Эмма Фольк, Джонни Галэки

Описание: Главного героя зовут Бэйли, он любит бекон и своего человека Итана. Они прожили вместе много счастливых лет, и вот настала пора прощаться. Но разве он может уйти, когда другу так нужна помощь? Ради Итана он готов на все… даже если в одной из жизней ему придётся стать девчонкой.


Видео: 1920x 804 , 10,5 Мбит/сек, 0.283 бит/(Пиксели*Кадры), 23,976 кадр/сек, HEVC (Main10@L.4.1@High) 10 бит
Аудио1: AC3, 6 ch, 640 Kbps - РусскийРусский, Дублированный (Лицензия)
Аудио2: AC3, 6 ch, 640 Kbps - АнглийскийАнглийский, Оригинал
Субтитры: Русские (форсированные,полные), английские

Как за пару секунд удалить ненужные аудиодорожки и субтитры (Внимание! После удаления вы не сможете поддержать раздачу)

Лог (x265 info)
x265 [info]: frame I: 1579, Avg QP:17.78 kb/s: 35368.57
x265 [info]: frame P: 29151, Avg QP:19.09 kb/s: 23130.52
x265 [info]: frame B: 125592, Avg QP:21.28 kb/s: 7243.43
x265 [info]: Weighted P-Frames: Y:5.9% UV:4.9%
x265 [info]: Weighted B-Frames: Y:3.4% UV:2.5%

encoded 156322 frames in 131783.48s (1.19 fps), 10490.15 kb/s, Avg QP:20.83
Медиаинфо
Формат : Matroska
Версия формата : Version 4
Размер файла : 8,94 Гбайт
Продолжительность : 1 ч. 48 м.
Общий поток : 11,8 Мбит/сек
Название фильма : by Spartanec
Дата кодирования : UTC 2023-05-16 13:33:09
Программа кодирования : mkvmerge v7.0.0 ('Where We Going') 64bit built on Jun 9 2014 15:16:27
Библиотека кодирования : libebml v1.3.0 + libmatroska v1.4.1
Обложка : Yes
Attachments : cover.jpg

Видео
Идентификатор : 1
Формат : HEVC
Формат/Информация : High Efficiency Video Coding
Профиль формата : Main 10@L4.1@High
Идентификатор кодека : V_MPEGH/ISO/HEVC
Продолжительность : 1 ч. 48 м.
Битрейт : 10,5 Мбит/сек
Ширина : 1 920 пикселей
Высота : 804 пикселя
Соотношение сторон : 2,40:1
Режим частоты кадров : Постоянный
Частота кадров : 23,976 (23976/1000) кадра/сек
Частота кадров в оригинале : 23,976 (24000/1001) кадра/сек
Цветовое пространство : YUV
Субдискретизация насыщенности : 4:2:0
Битовая глубина : 10 бит
Бит/(Пиксели*Кадры) : 0.283
Размер потока : 7,96 Гбайт (89%)
Заголовок : Spartanec
Библиотека кодирования : x265 3.5+95-38cf1c379:[Windows][GCC 13.0.1][64 bit] 10bit
Настройки программы : cpuid=1111039 / frame-threads=4 / numa-pools=24 / wpp / no-pmode / no-pme / no-psnr / no-ssim / log-level=2 / input-csp=1 / input-res=1920x804 / interlace=0 / total-frames=156322 / level-idc=41 / high-tier=1 / uhd-bd=0 / ref=5 / no-allow-non-conformance / no-repeat-headers / annexb / no-aud / no-eob / no-eos / no-hrd / info / hash=0 / temporal-layers=0 / open-gop / min-keyint=23 / keyint=240 / gop-lookahead=0 / bframes=16 / b-adapt=2 / b-pyramid / bframe-bias=0 / rc-lookahead=60 / lookahead-slices=1 / scenecut=40 / no-hist-scenecut / radl=0 / no-splice / no-intra-refresh / ctu=32 / min-cu-size=8 / rect / amp / max-tu-size=32 / tu-inter-depth=4 / tu-intra-depth=4 / limit-tu=1 / rdoq-level=1 / dynamic-rd=0.00 / no-ssim-rd / signhide / no-tskip / nr-intra=0 / nr-inter=0 / no-constrained-intra / no-strong-intra-smoothing / max-merge=5 / limit-refs=0 / no-limit-modes / me=3 / subme=7 / merange=57 / temporal-mvp / no-frame-dup / no-hme / weightp / weightb / no-analyze-src-pics / deblock=-2:-2 / no-sao / no-sao-non-deblock / rd=6 / selective-sao=0 / no-early-skip / no-rskip / no-fast-intra / no-tskip-fast / no-cu-lossless / b-intra / no-splitrd-skip / rdpenalty=0 / psy-rd=2.00 / psy-rdoq=1.00 / no-rd-refine / no-lossless / cbqpoffs=0 / crqpoffs=0 / rc=crf / crf=20.0 / qcomp=0.70 / qpstep=4 / stats-write=0 / stats-read=0 / vbv-maxrate=50000 / vbv-bufsize=50000 / vbv-init=0.9 / min-vbv-fullness=50.0 / max-vbv-fullness=80.0 / crf-max=0.0 / crf-min=0.0 / ipratio=1.40 / pbratio=1.30 / aq-mode=2 / aq-strength=1.00 / no-cutree / zone-count=0 / no-strict-cbr / qg-size=32 / no-rc-grain / qpmax=69 / qpmin=0 / no-const-vbv / sar=1 / overscan=0 / videoformat=5 / range=0 / colorprim=1 / transfer=1 / colormatrix=1 / chromaloc=0 / display-window=0 / cll=0,0 / min-luma=0 / max-luma=1023 / log2-max-poc-lsb=8 / vui-timing-info / vui-hrd-info / slices=1 / no-opt-qp-pps / no-opt-ref-list-length-pps / no-multi-pass-opt-rps / scenecut-bias=0.05 / no-opt-cu-delta-qp / no-aq-motion / no-hdr10 / no-hdr10-opt / no-dhdr10-opt / no-idr-recovery-sei / analysis-reuse-level=0 / analysis-save-reuse-level=0 / analysis-load-reuse-level=0 / scale-factor=0 / refine-intra=0 / refine-inter=0 / refine-mv=0 / refine-ctu-distortion=0 / no-limit-sao / ctu-info=0 / no-lowpass-dct / refine-analysis-type=0 / copy-pic=1 / max-ausize-factor=1.0 / no-dynamic-refine / no-single-sei / no-hevc-aq / no-svt / no-field / qp-adaptation-range=1.00 / scenecut-aware-qp=0conformance-window-offsets / right=0 / bottom=0 / decoder-max-rate=0 / no-vbv-live-multi-pass / no-mcstf / no-sbrc
Язык : English
Default : Да
Forced : Нет
Цветовой диапазон : Limited
Основные цвета : BT.709
Характеристики трансфера : BT.709
Коэффициенты матрицы : BT.709

Аудио #1
Идентификатор : 2
Формат : AC-3
Формат/Информация : Audio Coding 3
Коммерческое название : Dolby Digital
Идентификатор кодека : A_AC3
Продолжительность : 1 ч. 48 м.
Вид битрейта : Постоянный
Битрейт : 640 Кбит/сек
Каналы : 6 каналов
Channel layout : L R C LFE Ls Rs
Частота : 48,0 КГц
Частота кадров : 31,250 кадров/сек (1536 SPF)
Метод сжатия : С потерями
Размер потока : 497 Мбайт (5%)
Заголовок : Дубляж
Язык : Russian
Service kind : Complete Main
Default : Да
Forced : Да

Аудио #2
Идентификатор : 3
Формат : AC-3
Формат/Информация : Audio Coding 3
Коммерческое название : Dolby Digital
Идентификатор кодека : A_AC3
Продолжительность : 1 ч. 48 м.
Вид битрейта : Постоянный
Битрейт : 640 Кбит/сек
Каналы : 6 каналов
Channel layout : L R C LFE Ls Rs
Частота : 48,0 КГц
Частота кадров : 31,250 кадров/сек (1536 SPF)
Метод сжатия : С потерями
Размер потока : 497 Мбайт (5%)
Заголовок : Оригинал
Язык : English
Service kind : Complete Main
Default : Нет
Forced : Нет

Текст #1
Идентификатор : 4
Формат : UTF-8
Идентификатор кодека : S_TEXT/UTF8
Идентификатор кодека/Информация : UTF-8 Plain Text
Продолжительность : 1 ч. 4 м.
Битрейт : 1 бит/сек
Частота кадров : 0,003 кадр/сек
Count of elements : 11
Размер потока : 608 байт (0%)
Заголовок : Forced
Язык : Russian
Default : Да
Forced : Да

Текст #2
Идентификатор : 5
Формат : UTF-8
Идентификатор кодека : S_TEXT/UTF8
Идентификатор кодека/Информация : UTF-8 Plain Text
Продолжительность : 1 ч. 47 м.
Битрейт : 89 бит/сек
Частота кадров : 0,267 кадр/сек
Count of elements : 1726
Размер потока : 70,3 Кбайт (0%)
Заголовок : Full
Язык : Russian
Default : Нет
Forced : Нет

Текст #3
Идентификатор : 6
Формат : UTF-8
Идентификатор кодека : S_TEXT/UTF8
Идентификатор кодека/Информация : UTF-8 Plain Text
Продолжительность : 1 ч. 40 м.
Битрейт : 80 бит/сек
Частота кадров : 0,324 кадр/сек
Count of elements : 1960
Размер потока : 59,8 Кбайт (0%)
Язык : English
Default : Нет
Forced : Нет

Меню
00:00:00.000 : :Chapter 01
00:04:54.794 : :Chapter 02
00:10:32.549 : :Chapter 03
00:15:05.029 : :Chapter 04
00:20:52.585 : :Chapter 05
00:26:00.142 : :Chapter 06
00:30:10.851 : :Chapter 07
00:35:14.279 : :Chapter 08
00:39:44.507 : :Chapter 09
00:43:07.752 : :Chapter 10
00:49:12.366 : :Chapter 11
00:56:54.620 : :Chapter 12
01:01:46.620 : :Chapter 13
01:07:36.094 : :Chapter 14
01:13:57.975 : :Chapter 15
01:20:45.758 : :Chapter 16
01:26:22.886 : :Chapter 17
01:28:28.803 : :Chapter 18
01:37:27.008 : :Chapter 19
01:42:06.537 : :Chapter 20
Загрузка...Cкриншот1 Собачья жизнь 2 / A Dog's Journey (2019) BDRip 1080p [HEVC] 10 bit от SpartanecЗагрузка...Cкриншот2 Собачья жизнь 2 / A Dog's Journey (2019) BDRip 1080p [HEVC] 10 bit от SpartanecЗагрузка...Cкриншот3 Собачья жизнь 2 / A Dog's Journey (2019) BDRip 1080p [HEVC] 10 bit от SpartanecЗагрузка...Cкриншот4 Собачья жизнь 2 / A Dog's Journey (2019) BDRip 1080p [HEVC] 10 bit от Spartanec
Сэмпл Торрент🧲 Магнет

Рейтинги КП и IMDB, кнопки "Позвать в чате" и "Спасибо", а также мультитрекерная статистика доступны только зарегистрированным/авторизованным пользователям!

Файлы: 1
  • Собачья жизнь 2 (2019) BDRip 1080p [HEVC] 10bit by Spartanec.mkv   8.94 ГБ
Поблагодарили: 5
AndresUA, Dimon4ik86, ilyich05, ivan_1965, Мичман
Spartanec
036008.94 ГБ

Добавление нового комментария

Добавление комментариев доступно только зарегистрированным/авторизованным пользователям.