Чат

⚫︎
Список изменений сайта - https://rips.club/changelog.html (обновлен 24.05.2024)
    Онлайн (за 10 мин.): 0
    Отправка сообщений доступна только зарегистрированным/авторизованным пользователям.

    🎥︎📺︎Остаться в живых / Lost (2004) [1 сезон] BDRip 1080p [HEVC] 10 bit от OldGamer (RG RIPS CLUB)


    Обложка Остаться в живых / Lost (2004) [1 сезон] BDRip 1080p [HEVC] 10 bit от OldGamer (RG RIPS CLUB)
    HEVC
    10 bit
    ✂︎Сэмпл⤓︎Торрент🧲︎Магнет$Пожертвования

    При перезаливке на другие сайты просьба указать автора и релиз-группу.


    Год: 2004
    Страна: США
    Студия: ABC Studios, Bad Robot, Grass Skirt Productions, Touchstone Television
    Жанр: Фантастика, Детектив, Фэнтези, Триллер
    Длительность: 17:54:07

    Режиссер: Джек Бендер, Стивен Уильямс, Пол А. Эдвардс
    В ролях: Мэттью Фокс, Эванджелин Лилли, Джош Холлоуэй, Терри О’Куинн, Навин Эндрюс, Хорхе Гарсиа, Майкл Эмерсон, Эмили де Рэвин, Ким Юн-джин, Дэниэл Дэ Ким

    Описание: Красавец-лайнер, совершающий полёт из Сиднея в Лос-Анджелес, неожиданно терпит крушение. 48 пассажиров оказываются на пустынном острове посреди океана. Люди в панике. Надежда быть найденными довольно призрачна. Поэтому остаётся только одно: собраться с силами и постараться выжить на острове, начинённом множеством опасностей...


    Релиз-группа: RIPS CLUB
    Исходник: Blu-Ray Remux 1080p (rutracker)
    Видео: 1920x1080 (16:9), 6598 Кбит/сек - 15.3 Мбит/сек, HEVC (Main10@L.4.1@High)
    Аудио1: AC3, 6 ch, 448 Kbps - РусскийРусский, DUB (Первый канал)
    Аудио2: AC3, 6 ch, 640 Kbps - РусскийРусский, MVO (Tycoon Studio)
    Аудио3: AC3, 6 ch, 448 Kbps - АнглийскийАнглийский
    Субтитры: русские (full, forced), английские

    Как за несколько секунд удалить ненужные аудиодорожки и субтитры (Внимание! После удаления вы не сможете поддержать раздачу)


    Лог (x265 info)x265 [info]: frame I: 272, Avg QP:17.94 kb/s: 19935.50
    x265 [info]: frame P: 10721, Avg QP:19.24 kb/s: 15944.33
    x265 [info]: frame B: 51406, Avg QP:21.76 kb/s: 6652.93
    x265 [info]: Weighted P-Frames: Y:7.4% UV:6.2%
    x265 [info]: Weighted B-Frames: Y:8.0% UV:6.2%
    x265 [info]: encoded 62399 frames in 52386.75s (1.19 fps), 8307.22 kb/s, Avg QP:21.31
    МедиаинфоОбщее
    Уникальный идентификатор : 227700174652178846989827607227234735839 (0xAB4D755E5254AF16D628206F1CF356DF)
    Полное имя : \\.\Lost.S01.BDRip-HEVC.1080p\Lost.S01E14.Special.mkv
    Формат : Matroska
    Версия формата : Version 4
    Размер файла : 2,98 Гбайт
    Продолжительность : 43 м. 22 с.
    Общий поток : 9 847 Кбит/сек
    Частота кадров : 23,976 кадра/сек
    Дата кодирования : 2023-07-12 13:41:38 UTC
    Программа кодирования : mkvmerge v78.0 ('Running') 64-bit
    Библиотека кодирования : libebml v1.4.4 + libmatroska v1.7.1

    Видео
    Идентификатор : 1
    Формат : HEVC
    Формат/Информация : High Efficiency Video Coding
    Профиль формата : Main 10@L4.1@High
    Идентификатор кодека : V_MPEGH/ISO/HEVC
    Продолжительность : 43 м. 22 с.
    Битрейт : 8 308 Кбит/сек
    Ширина : 1 920 пикселей
    Высота : 1 080 пикселей
    Соотношение сторон : 16:9
    Режим частоты кадров : Постоянный
    Частота кадров : 23,976 (24000/1001) кадра/сек
    Цветовое пространство : YUV
    Субдискретизация насыщенности : 4:2:0
    Битовая глубина : 10 бит
    Бит/(Пиксели*Кадры) : 0.167
    Размер потока : 2,52 Гбайт (84%)
    Заголовок : Lost S01E14 / Rip by OldGamer
    Библиотека кодирования : x265 3.5+102-34532bda1:[Windows][GCC 13.1.0][64 bit] 10bit
    Настройки программы : cpuid=1111039 / frame-threads=4 / numa-pools=16 / wpp / no-pmode / no-pme / no-psnr / no-ssim / log-level=2 / input-csp=1 / input-res=1920x1080 / interlace=0 / total-frames=62399 / level-idc=41 / high-tier=1 / uhd-bd=0 / ref=5 / no-allow-non-conformance / no-repeat-headers / annexb / no-aud / no-eob / no-eos / no-hrd / info / hash=0 / temporal-layers=0 / open-gop / min-keyint=23 / keyint=240 / gop-lookahead=0 / bframes=16 / b-adapt=2 / b-pyramid / bframe-bias=0 / rc-lookahead=40 / lookahead-slices=0 / scenecut=40 / no-hist-scenecut / radl=0 / no-splice / no-intra-refresh / ctu=32 / min-cu-size=8 / rect / amp / max-tu-size=32 / tu-inter-depth=4 / tu-intra-depth=4 / limit-tu=1 / rdoq-level=2 / dynamic-rd=0.00 / no-ssim-rd / signhide / no-tskip / nr-intra=0 / nr-inter=0 / no-constrained-intra / no-strong-intra-smoothing / max-merge=5 / limit-refs=3 / no-limit-modes / me=3 / subme=7 / merange=57 / temporal-mvp / no-frame-dup / no-hme / weightp / weightb / no-analyze-src-pics / deblock=-2:-2 / no-sao / no-sao-non-deblock / rd=6 / selective-sao=0 / no-early-skip / no-rskip / no-fast-intra / no-tskip-fast / no-cu-lossless / b-intra / no-splitrd-skip / rdpenalty=0 / psy-rd=2.00 / psy-rdoq=1.00 / no-rd-refine / no-lossless / cbqpoffs=0 / crqpoffs=0 / rc=crf / crf=21.0 / qcomp=0.60 / qpstep=4 / stats-write=0 / stats-read=0 / vbv-maxrate=50000 / vbv-bufsize=50000 / vbv-init=0.9 / min-vbv-fullness=50.0 / max-vbv-fullness=80.0 / crf-max=0.0 / crf-min=0.0 / ipratio=1.40 / pbratio=1.30 / aq-mode=1 / aq-strength=1.00 / no-cutree / zone-count=1 / zones: / start-frame=61293 / end-frame=62399 / qp=36 / no-strict-cbr / qg-size=32 / no-rc-grain / qpmax=69 / qpmin=0 / no-const-vbv / sar=1 / overscan=0 / videoformat=5 / range=0 / colorprim=2 / transfer=2 / colormatrix=2 / chromaloc=0 / display-window=0 / cll=0,0 / min-luma=0 / max-luma=1023 / log2-max-poc-lsb=8 / vui-timing-info / vui-hrd-info / slices=1 / no-opt-qp-pps / no-opt-ref-list-length-pps / no-multi-pass-opt-rps / scenecut-bias=0.00 / no-opt-cu-delta-qp / no-aq-motion / no-hdr10 / no-hdr10-opt / no-dhdr10-opt / no-idr-recovery-sei / analysis-reuse-level=0 / analysis-save-reuse-level=0 / analysis-load-reuse-level=0 / scale-factor=0 / refine-intra=0 / refine-inter=0 / refine-mv=1 / refine-ctu-distortion=0 / no-limit-sao / ctu-info=0 / no-lowpass-dct / refine-analysis-type=0 / copy-pic=1 / max-ausize-factor=1.0 / no-dynamic-refine / no-single-sei / no-hevc-aq / no-svt / no-field / qp-adaptation-range=1.00 / scenecut-aware-qp=0conformance-window-offsets / right=0 / bottom=0 / decoder-max-rate=0 / no-vbv-live-multi-pass / no-mcstf / no-sbrc
    Язык : English
    Default : Да
    Forced : Нет

    Аудио #1
    Идентификатор : 2
    Формат : AC-3
    Формат/Информация : Audio Coding 3
    Коммерческое название : Dolby Digital
    Идентификатор кодека : A_AC3
    Продолжительность : 43 м. 22 с.
    Вид битрейта : Постоянный
    Битрейт : 448 Кбит/сек
    Каналы : 6 каналов
    Channel layout : L R C LFE Ls Rs
    Частота : 48,0 КГц
    Частота кадров : 31,250 кадров/сек (1536 SPF)
    Метод сжатия : С потерями
    Размер потока : 139 Мбайт (5%)
    Заголовок : DUB (Первый канал)
    Язык : Russian
    Service kind : Complete Main
    Default : Да
    Forced : Нет

    Аудио #2
    Идентификатор : 3
    Формат : AC-3
    Формат/Информация : Audio Coding 3
    Коммерческое название : Dolby Digital
    Идентификатор кодека : A_AC3
    Продолжительность : 43 м. 22 с.
    Вид битрейта : Постоянный
    Битрейт : 640 Кбит/сек
    Каналы : 6 каналов
    Channel layout : L R C LFE Ls Rs
    Частота : 48,0 КГц
    Частота кадров : 31,250 кадров/сек (1536 SPF)
    Метод сжатия : С потерями
    Размер потока : 199 Мбайт (6%)
    Заголовок : MVO (Tycoon Studio)
    Язык : Russian
    Service kind : Complete Main
    Default : Нет
    Forced : Нет

    Аудио #3
    Идентификатор : 4
    Формат : AC-3
    Формат/Информация : Audio Coding 3
    Коммерческое название : Dolby Digital
    Идентификатор кодека : A_AC3
    Продолжительность : 43 м. 22 с.
    Вид битрейта : Постоянный
    Битрейт : 448 Кбит/сек
    Каналы : 6 каналов
    Channel layout : L R C LFE Ls Rs
    Частота : 48,0 КГц
    Частота кадров : 31,250 кадров/сек (1536 SPF)
    Метод сжатия : С потерями
    Размер потока : 139 Мбайт (5%)
    Язык : English
    Service kind : Complete Main
    Default : Нет
    Forced : Нет

    Текст #1
    Идентификатор : 5
    Формат : ASS
    Идентификатор кодека : S_TEXT/ASS
    Идентификатор кодека/Информация : Advanced Sub Station Alpha
    Продолжительность : 1 с. 460 мс.
    Битрейт : 515 бит/сек
    Частота кадров : 0,685 кадр/сек
    Count of elements : 1
    Метод сжатия : Без потерь
    Размер потока : 94,0 байт (0%)
    Заголовок : Russian @ Forced ASS
    Язык : Russian
    Default : Да
    Forced : Нет

    Текст #2
    Идентификатор : 6
    Формат : ASS
    Идентификатор кодека : S_TEXT/ASS
    Идентификатор кодека/Информация : Advanced Sub Station Alpha
    Продолжительность : 42 м. 36 с.
    Битрейт : 154 бит/сек
    Частота кадров : 0,213 кадр/сек
    Count of elements : 544
    Метод сжатия : Без потерь
    Размер потока : 48,2 Кбайт (0%)
    Заголовок : Russian @ ASS
    Язык : Russian
    Default : Нет
    Forced : Нет

    Текст #3
    Идентификатор : 7
    Формат : UTF-8
    Идентификатор кодека : S_TEXT/UTF8
    Идентификатор кодека/Информация : UTF-8 Plain Text
    Продолжительность : 42 м. 36 с.
    Битрейт : 103 бит/сек
    Частота кадров : 0,213 кадр/сек
    Count of elements : 544
    Размер потока : 32,4 Кбайт (0%)
    Заголовок : Russian @ SRT
    Язык : Russian
    Default : Нет
    Forced : Нет

    Текст #4
    Идентификатор : 8
    Формат : ASS
    Идентификатор кодека : S_TEXT/ASS
    Идентификатор кодека/Информация : Advanced Sub Station Alpha
    Продолжительность : 42 м. 33 с.
    Битрейт : 108 бит/сек
    Частота кадров : 0,210 кадр/сек
    Count of elements : 536
    Метод сжатия : Без потерь
    Размер потока : 33,9 Кбайт (0%)
    Заголовок : English @ ASS
    Язык : English
    Default : Нет
    Forced : Нет

    Текст #5
    Идентификатор : 9
    Формат : UTF-8
    Идентификатор кодека : S_TEXT/UTF8
    Идентификатор кодека/Информация : UTF-8 Plain Text
    Продолжительность : 42 м. 33 с.
    Битрейт : 58 бит/сек
    Частота кадров : 0,210 кадр/сек
    Count of elements : 536
    Размер потока : 18,4 Кбайт (0%)
    Заголовок : English @ SRT
    Язык : English
    Default : Нет
    Forced : Нет

    Меню
    00:00:00.000 : en:Chapter 1
    00:06:20.254 : en:Chapter 2
    00:14:01.131 : en:Chapter 3
    00:23:07.219 : en:Chapter 4
    00:28:40.135 : en:Chapter 5
    00:37:40.925 : en:Chapter 6
    00:42:43.394 : en:Chapter 7
    Загрузка...Cкриншот1 Остаться в живых / Lost (2004) [1 сезон] BDRip 1080p [HEVC] 10 bit от OldGamer (RG RIPS CLUB)Загрузка...Cкриншот2 Остаться в живых / Lost (2004) [1 сезон] BDRip 1080p [HEVC] 10 bit от OldGamer (RG RIPS CLUB)Загрузка...Cкриншот3 Остаться в живых / Lost (2004) [1 сезон] BDRip 1080p [HEVC] 10 bit от OldGamer (RG RIPS CLUB)Загрузка...Cкриншот4 Остаться в живых / Lost (2004) [1 сезон] BDRip 1080p [HEVC] 10 bit от OldGamer (RG RIPS CLUB)
    Поблагодарили: 8A1eksandr1, AlexTs69, Antilord90, aquarius, axe66, Brooklyn, FFantasy, Горо
    Файлы: 25
    • Lost.S01.BDRip-HEVC.1080p
      • 2.91 ГБLost.S01E01.Pilot.Part.1.mkv
      • 4.17 ГБLost.S01E02.Pilot.Part.2.mkv
      • 4.38 ГБLost.S01E03.Tabula.Rasa.mkv
      • 5.02 ГБLost.S01E04.Walkabout.mkv
      • 3.19 ГБLost.S01E05.White.Rabbit.mkv
      • 3.03 ГБLost.S01E06.House.of.the.Rising.Sun.mkv
      • 2.48 ГБLost.S01E07.The.Moth.mkv
      • 2.75 ГБLost.S01E08.Confidence.Man.mkv
      • 2.65 ГБLost.S01E09.Solitary.mkv
      • 2.71 ГБLost.S01E10.Raised.by.Another.mkv
      • 2.84 ГБLost.S01E11.All.the.Best.Cowboys.Have.Daddy.Issues.mkv
      • 2.96 ГБLost.S01E12.Whatever.the.Case.May.Be.mkv
      • 3.11 ГБLost.S01E13.Hearts.and.Minds.mkv
      • 2.98 ГБLost.S01E14.Special.mkv
      • 2.37 ГБLost.S01E15.Homecoming.mkv
      • 2.72 ГБLost.S01E16.Outlaws.mkv
      • 3.03 ГБLost.S01E17....In.Translation.mkv
      • 3.42 ГБLost.S01E18.Numbers.mkv
      • 3.27 ГБLost.S01E19.Deus.Ex.Machina.mkv
      • 2.51 ГБLost.S01E20.Do.No.Harm.mkv
      • 2.59 ГБLost.S01E21.The.Greater.Good.mkv
      • 2.95 ГБLost.S01E22.Born.to.Run.mkv
      • 2.92 ГБLost.S01E23.Exodus.Part.1.mkv
      • 3.73 ГБLost.S01E24.Exodus.Part.2.mkv
      • 2.97 ГБLost.S01E25.Exodus.Part.3.mkv

    Рейтинги КП и IMDB, кнопки "Раздайте, пожалуйста" и "Спасибо", а также мультитрекерная статистика доступны только зарегистрированным/авторизованным пользователям!

    OldGamer
    573436(25) 77.68 ГБ

    💬︎ Комментарии

    Добавление комментариев доступно только зарегистрированным/авторизованным пользователям.

    Всего: 6
    Аватар не указан
    Butrenka
    Мое почтение, ждем продолжения)
    Аватар OldGamer
    OldGamer
    axe66 писал(а):
    видеоряд локализованный или нет?
    Нет
    Аватар axe66
    axe66
    видеоряд локализованный или нет?
    Аватар не указан
    Antilord90
    Блин, первые сезоны огонь, прям не оторваться! Жаль дальше так запороли.😢
    Аватар OldGamer
    OldGamer
    Egor писал(а):
    Опять жёсткий диск покупать,но Визитёры всё-таки пересмотри своё мнение,это фантастика,что уже правда...ты кстати,вакцинировался от ковида?
    Да отстань, не буду я эту документалку про рептилоидов делать 😆
    Аватар не указан
    Egor
    Опять жёсткий диск покупать,но Визитёры всё-таки пересмотри своё мнение,это фантастика,что уже правда...ты кстати,вакцинировался от ковида?