💬 Мини-чат

Для тех, кому интересен процесс переделки сайта - https://rips.club/changelog.html (обновлен 20.04.2024)
Отправка сообщений доступна только зарегистрированным/авторизованным пользователям.
Онлайн (за 10 мин.): 0

Lovebites - In the Beginning. The Best of 2017–2021 (2021) BDRip 1080p [HEVC] 10 bit от OldGamer (RG RIPS CLUB)

HEVC
10 bit
Обложка Lovebites - In the Beginning. The Best of 2017–2021 (2021) BDRip 1080p [HEVC] 10 bit от OldGamer (RG RIPS CLUB) Год: 2021
Страна: Япония
Жанр: Музыка
Продолжительность: 00:57:42

Состав:
Asami: Singer, Lead Vocals. Watanabe Miyako: Guitar, Piano, Backing Vocals. Tatematsu Midori: Guitar, Backing Vocals. Haruna: Drums, Backing Vocals. Miho: Bass, Backing Vocals.

Описание: LOVEBITES to release a greatest hits album with songs selected based on a fan vote. The songs are newly mastered by Mika Jussila at the prestigious Finnvox Studios in Finland and are included on the two CDs. Comes with new song(s). Comes with a Blu-ray with all the music videos.

Треклист
01. Don't Bite The Dust / ドント・バイト・ザ・ダスト
02. Shadowmaker / シャドウメイカー
03. The Crusade / ザ・クルセイド
04. Rising / ライジング
05. When Destinies Align / ホエン・デスティニーズ・アライン
06. Golden Destination / ゴールデン・デスティネイション
07. Winds Of Transylvania / ウィンズ・オブ・トランシルヴァニア
08. Winds Of Transylvania (VLADLOVE Version) / ウィンズ・オブ・トランシルヴァニア〔ぶらどらぶヴァージョン〕
09. Glory To The World / グローリー・トゥ・ザ・ワールド
10. Nameless Warrior / ネームレス・ウォリアー

Исходник: Blu-Ray Remux 1080p (rutracker)
Видео: 1920x1080, 10.6 Mbps
Аудио: PCM, 2 ch, 2304 Kbps - АнглийскийАнглийский
Субтитры: Отсутствуют

Лог (x265 info)
x265 [info]: frame I: 351, Avg QP:16.15 kb/s: 20741.90
x265 [info]: frame P: 21470, Avg QP:17.88 kb/s: 16939.96
x265 [info]: frame B: 61195, Avg QP:20.49 kb/s: 8284.74
x265 [info]: Weighted P-Frames: Y:5.9% UV:5.0%
x265 [info]: Weighted B-Frames: Y:8.3% UV:6.6%
x265 [info]: encoded 83016 frames in 82001.23s (1.01 fps), 10575.86 kb/s, Avg QP:19.80
Медиаинфо
Общее
Уникальный идентификатор : 46950562604479074013772477759564869556 (0x2352597511A2465CE51E9F4FF114EFB4)
Полное имя : \\.\Lovebites.In.the.Beginning.The.Best.of.2017–2021.BDRip-HEVC.1080p.mkv
Формат : Matroska
Версия формата : Version 4
Размер файла : 5,19 Гбайт
Продолжительность : 57 м. 42 с.
Общий поток : 12,9 Мбит/сек
Частота кадров : 23,976 кадра/сек
Название фильма : LOVEBITES.In.the.Beginning.The.Best.of.2017–2021.BDRip-HEVC. / LOVEBITES.In.the.Beginning.The.Best.of.2017–2021.BDRip-HEVC.
Тип содержимого : Music Video
Программа кодирования : mkvmerge v82.0 ('I'm The President') 64-bit
Библиотека кодирования : libebml v1.4.5 + libmatroska v1.7.1
Обложка : Yes
Attachments : cover.jpg

Видео
Идентификатор : 1
Формат : HEVC
Формат/Информация : High Efficiency Video Coding
Профиль формата : Main 10@L4.1@High
Идентификатор кодека : V_MPEGH/ISO/HEVC
Продолжительность : 57 м. 42 с.
Битрейт : 10,6 Мбит/сек
Ширина : 1 920 пикселей
Высота : 1 080 пикселей
Соотношение сторон : 16:9
Режим частоты кадров : Постоянный
Частота кадров : 23,976 (24000/1001) кадра/сек
Цветовое пространство : YUV
Субдискретизация насыщенности : 4:2:0
Битовая глубина : 10 бит
Бит/(Пиксели*Кадры) : 0.213
Размер потока : 4,26 Гбайт (82%)
Заголовок : LOVEBITES - In the Beginning. The Best of 2017–2021 / Rip by OldGamer
Библиотека кодирования : x265 3.5+110-8ee01d45b:[Windows][GCC 13.2.0][64 bit] 10bit
Настройки программы : cpuid=1111039 / frame-threads=3 / numa-pools=8 / wpp / no-pmode / no-pme / no-psnr / no-ssim / log-level=2 / input-csp=1 / input-res=1920x1080 / interlace=0 / total-frames=83016 / level-idc=41 / high-tier=1 / uhd-bd=0 / ref=5 / no-allow-non-conformance / no-repeat-headers / annexb / no-aud / no-eob / no-eos / no-hrd / info / hash=0 / temporal-layers=0 / open-gop / min-keyint=23 / keyint=240 / gop-lookahead=0 / bframes=16 / b-adapt=2 / b-pyramid / bframe-bias=0 / rc-lookahead=60 / lookahead-slices=0 / scenecut=40 / no-hist-scenecut / radl=0 / no-splice / no-intra-refresh / ctu=32 / min-cu-size=8 / rect / amp / max-tu-size=32 / tu-inter-depth=4 / tu-intra-depth=4 / limit-tu=1 / rdoq-level=2 / dynamic-rd=0.00 / no-ssim-rd / signhide / no-tskip / nr-intra=0 / nr-inter=0 / no-constrained-intra / no-strong-intra-smoothing / max-merge=5 / limit-refs=3 / no-limit-modes / me=3 / subme=7 / merange=57 / temporal-mvp / no-frame-dup / no-hme / weightp / weightb / no-analyze-src-pics / deblock=-2:-2 / no-sao / no-sao-non-deblock / rd=6 / selective-sao=0 / no-early-skip / no-rskip / no-fast-intra / no-tskip-fast / no-cu-lossless / b-intra / no-splitrd-skip / rdpenalty=0 / psy-rd=2.00 / psy-rdoq=1.00 / no-rd-refine / no-lossless / cbqpoffs=0 / crqpoffs=0 / rc=crf / crf=20.5 / qcomp=0.75 / qpstep=4 / stats-write=0 / stats-read=0 / vbv-maxrate=50000 / vbv-bufsize=50000 / vbv-init=0.9 / min-vbv-fullness=50.0 / max-vbv-fullness=80.0 / crf-max=0.0 / crf-min=0.0 / ipratio=1.40 / pbratio=1.30 / aq-mode=3 / aq-strength=1.00 / no-cutree / zone-count=1 / zones: / start-frame=82487 / end-frame=83016 / qp=36 / no-strict-cbr / qg-size=32 / no-rc-grain / qpmax=69 / qpmin=0 / no-const-vbv / sar=1 / overscan=0 / videoformat=5 / range=0 / colorprim=2 / transfer=2 / colormatrix=2 / chromaloc=0 / display-window=0 / cll=0,0 / min-luma=0 / max-luma=1023 / log2-max-poc-lsb=8 / vui-timing-info / vui-hrd-info / slices=1 / no-opt-qp-pps / no-opt-ref-list-length-pps / no-multi-pass-opt-rps / scenecut-bias=0.00 / no-opt-cu-delta-qp / no-aq-motion / no-hdr10 / no-hdr10-opt / no-dhdr10-opt / no-idr-recovery-sei / analysis-reuse-level=0 / analysis-save-reuse-level=0 / analysis-load-reuse-level=0 / scale-factor=0 / refine-intra=0 / refine-inter=0 / refine-mv=1 / refine-ctu-distortion=0 / no-limit-sao / ctu-info=0 / no-lowpass-dct / refine-analysis-type=0 / copy-pic=1 / max-ausize-factor=1.0 / no-dynamic-refine / no-single-sei / no-hevc-aq / no-svt / no-field / qp-adaptation-range=1.00 / scenecut-aware-qp=0conformance-window-offsets / right=0 / bottom=0 / decoder-max-rate=0 / no-vbv-live-multi-pass / no-mcstf / no-sbrc
Язык : Japanese
Default : Да
Forced : Нет

Аудио
Идентификатор : 2
ID in the original source medium : 4352 (0x1100)
Формат : PCM
Настройки формата : Little / Signed
Идентификатор кодека : A_PCM/INT/LIT
Продолжительность : 57 м. 42 с.
Вид битрейта : Постоянный
Битрейт : 2 304 Кбит/сек
Каналы : 2 канала
Частота : 48,0 КГц
Частота кадров : 30,000 кадров/сек (1600 SPF)
Битовая глубина : 24 бит
Размер потока : 951 Мбайт (18%)
Заголовок : Stereo
Язык : Japanese
Default : Да
Forced : Нет
Носитель оригинала : Blu-ray

Меню
00:00:00.000 : en:Don't Bite The Dust
00:04:39.195 : en:Shadowmaker
00:10:24.415 : en:The Crusade
00:15:20.920 : en:Rising
00:21:12.271 : en:When Destinies Align
00:27:24.643 : en:Golden Destination
00:33:32.010 : en:Winds Of Transylvania
00:38:50.328 : en:Winds Of Transylvania (VLADLOVE Version)
00:44:09.647 : en:Glory To The World
00:51:01.058 : en:Nameless Warrior
Загрузка...Cкриншот1 Lovebites - In the Beginning. The Best of 2017–2021 (2021) BDRip 1080p [HEVC] 10 bit от OldGamer (RG RIPS CLUB)Загрузка...Cкриншот2 Lovebites - In the Beginning. The Best of 2017–2021 (2021) BDRip 1080p [HEVC] 10 bit от OldGamer (RG RIPS CLUB)Загрузка...Cкриншот3 Lovebites - In the Beginning. The Best of 2017–2021 (2021) BDRip 1080p [HEVC] 10 bit от OldGamer (RG RIPS CLUB)Загрузка...Cкриншот4 Lovebites - In the Beginning. The Best of 2017–2021 (2021) BDRip 1080p [HEVC] 10 bit от OldGamer (RG RIPS CLUB)
Релиз-группа: RIPS CLUB
Сэмпл Торрент🧲 Магнет

Рейтинги КП и IMDB, кнопки "Позвать в чате" и "Спасибо", а также мультитрекерная статистика доступны только зарегистрированным/авторизованным пользователям!

Файлы: 1
  • Lovebites.In.the.Beginning.The.Best.of.2017–2021.BDRip-HEVC.1080p.mkv   5.19 ГБ
Поблагодарили: 3
donadar, InSpector, zmeii
OldGamer
039205.19 ГБ

Добавление нового комментария

Добавление комментариев доступно только зарегистрированным/авторизованным пользователям.