Чат

⚫︎
Список изменений сайта - https://rips.club/changelog.html (обновлен 24.05.2024)
    Онлайн (за 10 мин.): 0
    Отправка сообщений доступна только зарегистрированным/авторизованным пользователям.

    🎥︎На гребне волны / Point Break (1991) [Remastered Shout Factory] BDRip 1080p [HEVC] 10 bit от OldGamer (RG RIPS CLUB)


    Обложка На гребне волны / Point Break (1991) [Remastered Shout Factory] BDRip 1080p [HEVC] 10 bit от OldGamer (RG RIPS CLUB)
    HEVC
    10 bit
    ✂︎Сэмпл⤓︎Торрент🧲︎Магнет$Пожертвования

    При перезаливке на другие сайты просьба указать автора и релиз-группу.


    Год: 1991
    Страна: Япония, США
    Студия: JVC Entertainment, Largo Entertainment
    Жанр: Боевик, Триллер, Криминал
    Длительность: 02:01:55

    Режиссер: Кэтрин Бигелоу
    В ролях: Патрик Суэйзи, Киану Ривз, Гэри Бьюзи, Лори Петти, Джон К. Макгинли, Джеймс Легро, Джон Филбин, Боджесси Кристофер, Джулиан Рейес, Дэниэл Бир

    Описание: Таинственная банда серфингистов среди белого дня совершает ограбления банков. Полиция и ФБР поражены профессиональностью и скоростью проведения преступлений. Следствие ведёт молодой и претенциозный агент ФБР, который, рискуя жизнью, внедряется в банду и раскрывает это дело, но неожиданно для самого себя он осознаёт, что вернуться к нормальной жизни он уже не сможет.


    Релиз-группа: RIPS CLUB
    Исходник: Blu-Ray Remux 1080p (rutracker)
    Видео: 1920x800, 15.7 Mbps
    Аудио1: AC3, 2 ch, 192 Kbps - РусскийРусский, DUB (Хлопушка)
    Аудио2: AC3, 6 ch, 640 Kbps - РусскийРусский, MVO (Киномания)
    Аудио3: AC3, 2 ch, 224 Kbps - РусскийРусский, MVO (Лазер Видео)
    Аудио4: AC3, 2 ch, 192 Kbps - РусскийРусский, MVO (РТР)
    Аудио5: AC3, 2 ch, 192 Kbps - РусскийРусский, MVO (ОРТ)
    Аудио6: AC3, 2 ch, 192 Kbps - РусскийРусский, MVO (TB3 / iTunes)
    Аудио7: AC3, 6 ch, 640 Kbps - РусскийРусский, DVO (Пётр Гланц и Инна Королёва)
    Аудио8: AC3, 2 ch, 256 Kbps - РусскийРусский, DVO (Премьер Видео Фильм)
    Аудио9: AC3, 6 ch, 640 Kbps - РусскийРусский, AVO (Андрей Гаврилов)
    Аудио10: AC3, 6 ch, 640 Kbps - РусскийРусский, AVO (Юрий Живов)
    Аудио11: AC3, 6 ch, 448 Kbps - РусскийРусский, AVO (Дмитрий Пучков)
    Аудио12: AC3, 2 ch, 192 Kbps - РусскийРусский, AVO (Максим Латышев)
    Аудио13: AC3, 1 ch, 96 Kbps - РусскийРусский, AVO (Андрей Дольский)
    Аудио14: AC3, 6 ch, 640 Kbps - РусскийРусский, VO (Алексей Багичев)
    Аудио15: AC3, 6 ch, 448 Kbps - РусскийРусский, VO (Алексей Матвеев)
    Аудио16: AC3, 6 ch, 640 Kbps - АнглийскийАнглийский
    Субтитры: русские, украинские, английские (SDH)

    Как за несколько секунд удалить ненужные аудиодорожки и субтитры (Внимание! После удаления вы не сможете поддержать раздачу)


    Лог (x265 info)x265 [info]: frame I: 743, Avg QP:18.05 kb/s: 26568.04
    x265 [info]: frame P: 32218, Avg QP:19.24 kb/s: 20696.80
    x265 [info]: frame B: 142438, Avg QP:21.41 kb/s: 14528.08
    x265 [info]: Weighted P-Frames: Y:14.3% UV:11.8%
    x265 [info]: Weighted B-Frames: Y:18.5% UV:13.3%
    x265 [info]: encoded 175399 frames in 137527.68s (1.28 fps), 15712.18 kb/s, Avg QP:21.00
    МедиаинфоОбщее
    Уникальный идентификатор : 10901421470234670352106374844218248785 (0x833899358E771324FE192529CEA8E51)
    Полное имя : \\.\На.гребне.волны.Point.Break.1991.Remastered.Shout.Factory.BDRip-HEVC.1080p.mkv
    Формат : Matroska
    Версия формата : Version 4
    Размер файла : 18,7 Гбайт
    Продолжительность : 2 ч. 1 мин.
    Общий битрейт : 22,0 Мбит/сек
    Частота кадров : 23,976 кадра/сек
    Название фильма : На гребне волны
    Кодирование выполнил : OldGamer
    Тип содержимого : Movie
    Описание : «27 банков за 3 года - и всё отдать за идеальную волну!»
    Дата выпуска : 1991-01-31
    Дата записи : 1991-01-31
    Дата кодирования : 2024-05-29 15:54:30 UTC
    Программа кодирования : mkvmerge v83.0 ('Circle Of Friends') 64-bit
    Библиотека кодирования : libebml v1.4.5 + libmatroska v1.7.1 / xvid4psp5
    Обложка : Yes
    Attachments : cover.jpg
    ACTOR : Киану Ривз, Patrick Swayze, Lori Petty, Гэри Бьюзи, John C. McGinley, James Le Gros, John Philbin, BoJesse Christopher, Chris Pedersen, Julian Reyes, Daniel Beer, Vincent Klyn, Anthony Kiedis, Lee Tergesen, Dave Olson, Christopher Pettiet, Sydney Wal...
    ARTIST : Киану Ривз, Patrick Swayze, Lori Petty, Гэри Бьюзи, John C. McGinley, James Le Gros, John Philbin, BoJesse Christopher, Chris Pedersen, Julian Reyes, Daniel Beer, Vincent Klyn, Anthony Kiedis, Lee Tergesen, Dave Olson, Christopher Pettiet, Sydney Wal...
    DIRECTOR : Kathryn Bigelow
    GENRE : боевик, триллер, криминал
    LAW_RATING : R
    PRODUCER : Robert L. Levy, Peter Abrams, Joseph Newton Cohen
    PRODUCTION_STUDIO : 20th Century Fox
    RATING : R
    SCREENPLAY_BY : W. Peter Iliff
    SUMMARY : «27 банков за 3 года - и всё отдать за идеальную волну!»
    SYNOPSIS : Таинственная банда серфингистов среди белого дня совершает ограбления банков. Полиция и ФБР поражены профессиональностью и скоростью проведения преступлений. Следствие ведёт молодой и претенциозный агент ФБР, который, рискуя жизнью, внедряется в банду и раскрывает это дело, но неожиданно для самого себя он осознаёт, что вернуться к нормальной жизни он уже не сможет.
    WRITTEN_BY : W. Peter Iliff

    Видео
    Идентификатор : 1
    Формат : HEVC
    Формат/Информация : High Efficiency Video Coding
    Профиль формата : Main 10@L4.1@High
    Идентификатор кодека : V_MPEGH/ISO/HEVC
    Продолжительность : 2 ч. 1 мин.
    Битрейт : 15,7 Мбит/сек
    Ширина : 1 920 пикселей
    Высота : 800 пикселей
    Соотношение сторон дисплея : 2,40:1
    Режим частоты кадров : Постоянный
    Частота кадров : 23,976 (24000/1001) кадра/сек
    Цветовое пространство : YUV
    Цветовая субдискретизация : 4:2:0
    Битовая глубина : 10 бит
    Бит/(Пиксели*Кадры) : 0.427
    Размер потока : 13,4 Гбайт (71%)
    Заголовок : Point Break / Rip by OldGamer
    Библиотека кодирования : x265 3.6+12-f3c5fbaff:[Windows][GCC 14.1.0][64 bit] 10bit
    Параметры библиотеки кодирования : cpuid=1111039 / frame-threads=4 / numa-pools=16 / wpp / no-pmode / no-pme / no-psnr / no-ssim / log-level=2 / input-csp=1 / input-res=1920x800 / interlace=0 / total-frames=175399 / level-idc=41 / high-tier=1 / uhd-bd=0 / ref=5 / no-allow-non-conformance / no-repeat-headers / annexb / no-aud / no-eob / no-eos / no-hrd / info / hash=0 / temporal-layers=0 / open-gop / min-keyint=23 / keyint=240 / gop-lookahead=0 / bframes=16 / b-adapt=2 / b-pyramid / bframe-bias=0 / rc-lookahead=40 / lookahead-slices=0 / scenecut=40 / no-hist-scenecut / radl=0 / no-splice / no-intra-refresh / ctu=32 / min-cu-size=8 / rect / amp / max-tu-size=32 / tu-inter-depth=4 / tu-intra-depth=4 / limit-tu=1 / rdoq-level=2 / dynamic-rd=0.00 / no-ssim-rd / signhide / no-tskip / nr-intra=0 / nr-inter=0 / no-constrained-intra / no-strong-intra-smoothing / max-merge=5 / limit-refs=3 / no-limit-modes / me=3 / subme=7 / merange=57 / temporal-mvp / no-frame-dup / no-hme / weightp / weightb / no-analyze-src-pics / deblock=-2:-2 / no-sao / no-sao-non-deblock / rd=6 / selective-sao=0 / no-early-skip / no-rskip / no-fast-intra / no-tskip-fast / no-cu-lossless / b-intra / no-splitrd-skip / rdpenalty=0 / psy-rd=2.00 / psy-rdoq=1.00 / no-rd-refine / no-lossless / cbqpoffs=0 / crqpoffs=0 / rc=crf / crf=20.3 / qcomp=0.73 / qpstep=4 / stats-write=0 / stats-read=0 / vbv-maxrate=50000 / vbv-bufsize=50000 / vbv-init=0.9 / min-vbv-fullness=50.0 / max-vbv-fullness=80.0 / crf-max=0.0 / crf-min=0.0 / ipratio=1.40 / pbratio=1.30 / aq-mode=1 / aq-strength=1.00 / no-cutree / zone-count=1 / zones: / start-frame=170728 / end-frame=175400 / qp=36 / no-strict-cbr / qg-size=32 / no-rc-grain / qpmax=69 / qpmin=0 / no-const-vbv / sar=1 / overscan=0 / videoformat=5 / range=0 / colorprim=2 / transfer=2 / colormatrix=2 / chromaloc=0 / display-window=0 / cll=0,0 / min-luma=0 / max-luma=1023 / log2-max-poc-lsb=8 / vui-timing-info / vui-hrd-info / slices=1 / no-opt-qp-pps / no-opt-ref-list-length-pps / no-multi-pass-opt-rps / scenecut-bias=0.00 / no-opt-cu-delta-qp / no-aq-motion / no-hdr10 / no-hdr10-opt / no-dhdr10-opt / no-idr-recovery-sei / analysis-reuse-level=0 / analysis-save-reuse-level=0 / analysis-load-reuse-level=0 / scale-factor=0 / refine-intra=0 / refine-inter=0 / refine-mv=1 / refine-ctu-distortion=0 / no-limit-sao / ctu-info=0 / no-lowpass-dct / refine-analysis-type=0 / copy-pic=1 / max-ausize-factor=1.0 / no-dynamic-refine / no-single-sei / no-hevc-aq / no-svt / no-field / qp-adaptation-range=1.00 / scenecut-aware-qp=0conformance-window-offsets / right=0 / bottom=0 / decoder-max-rate=0 / no-vbv-live-multi-pass / no-mcstf / no-sbrc
    Язык : Английский
    По умолчанию : Да
    Принудительно : Нет

    Аудио #1
    Идентификатор : 2
    Формат : AC-3
    Формат/Информация : Audio Coding 3
    Коммерческое название : Dolby Digital
    Идентификатор кодека : A_AC3
    Продолжительность : 2 ч. 1 мин.
    Вид битрейта : Постоянный
    Битрейт : 192 Кбит/сек
    Канал(-ы) : 2 канала
    Расположение каналов : L R
    Частота дискретизации : 48,0 КГц
    Частота кадров : 31,250 кадров/сек (1536 SPF)
    Метод сжатия : С потерями
    Размер потока : 167 Мбайт (1%)
    Заголовок : DUB (Хлопушка)
    Язык : Русский
    Вид сервиса : Complete Main
    По умолчанию : Да
    Принудительно : Нет
    Нормализация звука речи : -31 dB
    compr : -0.28 dB
    dsurmod : Not Dolby Surround encoded
    ltrtcmixlev : 3.0 dB
    ltrtsurmixlev : 3.0 dB
    lorocmixlev : 3.0 dB
    lorosurmixlev : 3.0 dB
    dialnorm_Average : -31 dB
    dialnorm_Minimum : -31 dB
    dialnorm_Maximum : -31 dB

    Аудио #2
    Идентификатор : 3
    Формат : AC-3
    Формат/Информация : Audio Coding 3
    Коммерческое название : Dolby Digital
    Идентификатор кодека : A_AC3
    Продолжительность : 2 ч. 1 мин.
    Вид битрейта : Постоянный
    Битрейт : 640 Кбит/сек
    Канал(-ы) : 6 каналов
    Расположение каналов : L R C LFE Ls Rs
    Частота дискретизации : 48,0 КГц
    Частота кадров : 31,250 кадров/сек (1536 SPF)
    Метод сжатия : С потерями
    Размер потока : 558 Мбайт (3%)
    Заголовок : MVO (Киномания)
    Язык : Русский
    Вид сервиса : Complete Main
    По умолчанию : Нет
    Принудительно : Нет
    Нормализация звука речи : -27 dB
    compr : -1.16 dB
    dynrng : -0.14 dB
    cmixlev : -3.0 dB
    surmixlev : -3 dB
    mixlevel : 285 dB
    roomtyp : Small
    dialnorm_Average : -27 dB
    dialnorm_Minimum : -27 dB
    dialnorm_Maximum : -27 dB

    Аудио #3
    Идентификатор : 4
    Формат : AC-3
    Формат/Информация : Audio Coding 3
    Коммерческое название : Dolby Digital
    Идентификатор кодека : A_AC3
    Продолжительность : 2 ч. 1 мин.
    Вид битрейта : Постоянный
    Битрейт : 224 Кбит/сек
    Канал(-ы) : 2 канала
    Расположение каналов : L R
    Частота дискретизации : 48,0 КГц
    Частота кадров : 31,250 кадров/сек (1536 SPF)
    Метод сжатия : С потерями
    Размер потока : 195 Мбайт (1%)
    Заголовок : MVO (Лазер Видео)
    Язык : Русский
    Вид сервиса : Complete Main
    По умолчанию : Нет
    Принудительно : Нет
    Нормализация звука речи : -31 dB
    dialnorm_Average : -31 dB
    dialnorm_Minimum : -31 dB
    dialnorm_Maximum : -31 dB

    Аудио #4
    Идентификатор : 5
    Формат : AC-3
    Формат/Информация : Audio Coding 3
    Коммерческое название : Dolby Digital
    Идентификатор кодека : A_AC3
    Продолжительность : 2 ч. 1 мин.
    Вид битрейта : Постоянный
    Битрейт : 192 Кбит/сек
    Канал(-ы) : 2 канала
    Расположение каналов : L R
    Частота дискретизации : 48,0 КГц
    Частота кадров : 31,250 кадров/сек (1536 SPF)
    Метод сжатия : С потерями
    Размер потока : 167 Мбайт (1%)
    Заголовок : MVO (РТР)
    Язык : Русский
    Вид сервиса : Complete Main
    По умолчанию : Нет
    Принудительно : Нет
    Нормализация звука речи : -31 dB
    dialnorm_Average : -31 dB
    dialnorm_Minimum : -31 dB
    dialnorm_Maximum : -31 dB

    Аудио #5
    Идентификатор : 6
    Формат : AC-3
    Формат/Информация : Audio Coding 3
    Коммерческое название : Dolby Digital
    Идентификатор кодека : A_AC3
    Продолжительность : 2 ч. 1 мин.
    Вид битрейта : Постоянный
    Битрейт : 192 Кбит/сек
    Канал(-ы) : 2 канала
    Расположение каналов : L R
    Частота дискретизации : 48,0 КГц
    Частота кадров : 31,250 кадров/сек (1536 SPF)
    Метод сжатия : С потерями
    Размер потока : 167 Мбайт (1%)
    Заголовок : MVO (ОРТ)
    Язык : Русский
    Вид сервиса : Complete Main
    По умолчанию : Нет
    Принудительно : Нет
    Нормализация звука речи : -27 dB
    compr : -4.08 dB
    dynrng : -8.70 dB
    mixlevel : 285 dB
    roomtyp : Small
    dialnorm_Average : -27 dB
    dialnorm_Minimum : -27 dB
    dialnorm_Maximum : -27 dB

    Аудио #6
    Идентификатор : 7
    Формат : AC-3
    Формат/Информация : Audio Coding 3
    Коммерческое название : Dolby Digital
    Идентификатор кодека : A_AC3
    Продолжительность : 2 ч. 1 мин.
    Вид битрейта : Постоянный
    Битрейт : 192 Кбит/сек
    Канал(-ы) : 2 канала
    Расположение каналов : L R
    Частота дискретизации : 48,0 КГц
    Частота кадров : 31,250 кадров/сек (1536 SPF)
    Метод сжатия : С потерями
    Размер потока : 167 Мбайт (1%)
    Заголовок : MVO (TB3 / iTunes)
    Язык : Русский
    Вид сервиса : Complete Main
    По умолчанию : Нет
    Принудительно : Нет
    Нормализация звука речи : -31 dB
    dialnorm_Average : -31 dB
    dialnorm_Minimum : -31 dB
    dialnorm_Maximum : -31 dB

    Аудио #7
    Идентификатор : 8
    Формат : AC-3
    Формат/Информация : Audio Coding 3
    Коммерческое название : Dolby Digital
    Идентификатор кодека : A_AC3
    Продолжительность : 2 ч. 1 мин.
    Вид битрейта : Постоянный
    Битрейт : 640 Кбит/сек
    Канал(-ы) : 6 каналов
    Расположение каналов : L R C LFE Ls Rs
    Частота дискретизации : 48,0 КГц
    Частота кадров : 31,250 кадров/сек (1536 SPF)
    Метод сжатия : С потерями
    Размер потока : 558 Мбайт (3%)
    Заголовок : DVO (Пётр Гланц и Инна Королёва)
    Язык : Русский
    Вид сервиса : Complete Main
    По умолчанию : Нет
    Принудительно : Нет
    Нормализация звука речи : -27 dB
    compr : -1.48 dB
    dynrng : -0.14 dB
    cmixlev : -3.0 dB
    surmixlev : -3 dB
    mixlevel : 285 dB
    roomtyp : Small
    dialnorm_Average : -27 dB
    dialnorm_Minimum : -27 dB
    dialnorm_Maximum : -27 dB

    Аудио #8
    Идентификатор : 9
    Формат : AC-3
    Формат/Информация : Audio Coding 3
    Коммерческое название : Dolby Digital
    Идентификатор кодека : A_AC3
    Продолжительность : 2 ч. 1 мин.
    Вид битрейта : Постоянный
    Битрейт : 256 Кбит/сек
    Канал(-ы) : 2 канала
    Расположение каналов : L R
    Частота дискретизации : 48,0 КГц
    Частота кадров : 31,250 кадров/сек (1536 SPF)
    Метод сжатия : С потерями
    Размер потока : 223 Мбайт (1%)
    Заголовок : DVO (Премьер Видео Фильм)
    Язык : Русский
    Вид сервиса : Complete Main
    По умолчанию : Нет
    Принудительно : Нет
    Нормализация звука речи : -31 dB
    dialnorm_Average : -31 dB
    dialnorm_Minimum : -31 dB
    dialnorm_Maximum : -31 dB

    Аудио #9
    Идентификатор : 10
    Формат : AC-3
    Формат/Информация : Audio Coding 3
    Коммерческое название : Dolby Digital
    Идентификатор кодека : A_AC3
    Продолжительность : 2 ч. 1 мин.
    Вид битрейта : Постоянный
    Битрейт : 640 Кбит/сек
    Канал(-ы) : 6 каналов
    Расположение каналов : L R C LFE Ls Rs
    Частота дискретизации : 48,0 КГц
    Частота кадров : 31,250 кадров/сек (1536 SPF)
    Метод сжатия : С потерями
    Размер потока : 558 Мбайт (3%)
    Заголовок : AVO (Андрей Гаврилов)
    Язык : Русский
    Вид сервиса : Complete Main
    По умолчанию : Нет
    Принудительно : Нет
    Нормализация звука речи : -27 dB
    compr : -1.48 dB
    dynrng : -0.14 dB
    cmixlev : -3.0 dB
    surmixlev : -3 dB
    mixlevel : 285 dB
    roomtyp : Small
    dialnorm_Average : -27 dB
    dialnorm_Minimum : -27 dB
    dialnorm_Maximum : -27 dB

    Аудио #10
    Идентификатор : 11
    Формат : AC-3
    Формат/Информация : Audio Coding 3
    Коммерческое название : Dolby Digital
    Идентификатор кодека : A_AC3
    Продолжительность : 2 ч. 1 мин.
    Вид битрейта : Постоянный
    Битрейт : 640 Кбит/сек
    Канал(-ы) : 6 каналов
    Расположение каналов : L R C LFE Ls Rs
    Частота дискретизации : 48,0 КГц
    Частота кадров : 31,250 кадров/сек (1536 SPF)
    Метод сжатия : С потерями
    Размер потока : 558 Мбайт (3%)
    Заголовок : AVO (Юрий Живов)
    Язык : Русский
    Вид сервиса : Complete Main
    По умолчанию : Нет
    Принудительно : Нет
    Нормализация звука речи : -27 dB
    compr : -1.16 dB
    dynrng : -6.16 dB
    cmixlev : -3.0 dB
    surmixlev : -3 dB
    mixlevel : 285 dB
    roomtyp : Small
    dialnorm_Average : -27 dB
    dialnorm_Minimum : -27 dB
    dialnorm_Maximum : -27 dB

    Аудио #11
    Идентификатор : 12
    Формат : AC-3
    Формат/Информация : Audio Coding 3
    Коммерческое название : Dolby Digital
    Идентификатор кодека : A_AC3
    Продолжительность : 2 ч. 1 мин.
    Вид битрейта : Постоянный
    Битрейт : 448 Кбит/сек
    Канал(-ы) : 6 каналов
    Расположение каналов : L R C LFE Ls Rs
    Частота дискретизации : 48,0 КГц
    Частота кадров : 31,250 кадров/сек (1536 SPF)
    Метод сжатия : С потерями
    Размер потока : 391 Мбайт (2%)
    Заголовок : AVO (Дмитрий Пучков)
    Язык : Русский
    Вид сервиса : Complete Main
    По умолчанию : Нет
    Принудительно : Нет
    Нормализация звука речи : -27 dB
    compr : -0.28 dB
    dynrng : -0.86 dB
    cmixlev : -3.0 dB
    surmixlev : -3 dB
    mixlevel : 285 dB
    roomtyp : Small
    dialnorm_Average : -27 dB
    dialnorm_Minimum : -27 dB
    dialnorm_Maximum : -27 dB

    Аудио #12
    Идентификатор : 13
    Формат : AC-3
    Формат/Информация : Audio Coding 3
    Коммерческое название : Dolby Digital
    Идентификатор кодека : A_AC3
    Продолжительность : 2 ч. 1 мин.
    Вид битрейта : Постоянный
    Битрейт : 192 Кбит/сек
    Канал(-ы) : 2 канала
    Расположение каналов : L R
    Частота дискретизации : 48,0 КГц
    Частота кадров : 31,250 кадров/сек (1536 SPF)
    Метод сжатия : С потерями
    Размер потока : 167 Мбайт (1%)
    Заголовок : AVO (Максим Латышев)
    Язык : Русский
    Вид сервиса : Complete Main
    По умолчанию : Нет
    Принудительно : Нет
    Нормализация звука речи : -27 dB
    compr : -3.66 dB
    dynrng : -4.30 dB
    mixlevel : 285 dB
    roomtyp : Small
    dialnorm_Average : -27 dB
    dialnorm_Minimum : -27 dB
    dialnorm_Maximum : -27 dB

    Аудио #13
    Идентификатор : 14
    Формат : AC-3
    Формат/Информация : Audio Coding 3
    Коммерческое название : Dolby Digital
    Идентификатор кодека : A_AC3
    Продолжительность : 2 ч. 1 мин.
    Вид битрейта : Постоянный
    Битрейт : 96,0 Кбит/сек
    Канал(-ы) : 1 канал
    Расположение каналов : M
    Частота дискретизации : 48,0 КГц
    Частота кадров : 31,250 кадров/сек (1536 SPF)
    Метод сжатия : С потерями
    Размер потока : 83,7 Мбайт (0%)
    Заголовок : AVO (Андрей Дольский)
    Язык : Русский
    Вид сервиса : Complete Main
    По умолчанию : Нет
    Принудительно : Нет
    Нормализация звука речи : -31 dB
    dialnorm_Average : -31 dB
    dialnorm_Minimum : -31 dB
    dialnorm_Maximum : -31 dB

    Аудио #14
    Идентификатор : 15
    Формат : AC-3
    Формат/Информация : Audio Coding 3
    Коммерческое название : Dolby Digital
    Идентификатор кодека : A_AC3
    Продолжительность : 2 ч. 1 мин.
    Вид битрейта : Постоянный
    Битрейт : 640 Кбит/сек
    Канал(-ы) : 6 каналов
    Расположение каналов : L R C LFE Ls Rs
    Частота дискретизации : 48,0 КГц
    Частота кадров : 31,250 кадров/сек (1536 SPF)
    Метод сжатия : С потерями
    Размер потока : 558 Мбайт (3%)
    Заголовок : VO (Алексей Багичев)
    Язык : Русский
    Вид сервиса : Complete Main
    По умолчанию : Нет
    Принудительно : Нет
    Нормализация звука речи : -27 dB
    compr : -1.16 dB
    dynrng : -6.16 dB
    cmixlev : -3.0 dB
    surmixlev : -3 dB
    mixlevel : 285 dB
    roomtyp : Small
    dialnorm_Average : -27 dB
    dialnorm_Minimum : -27 dB
    dialnorm_Maximum : -27 dB

    Аудио #15
    Идентификатор : 16
    Формат : AC-3
    Формат/Информация : Audio Coding 3
    Коммерческое название : Dolby Digital
    Идентификатор кодека : A_AC3
    Продолжительность : 2 ч. 1 мин.
    Вид битрейта : Постоянный
    Битрейт : 448 Кбит/сек
    Канал(-ы) : 6 каналов
    Расположение каналов : L R C LFE Ls Rs
    Частота дискретизации : 48,0 КГц
    Частота кадров : 31,250 кадров/сек (1536 SPF)
    Метод сжатия : С потерями
    Размер потока : 390 Мбайт (2%)
    Заголовок : VO (Алексей Матвеев)
    Язык : Русский
    Вид сервиса : Complete Main
    По умолчанию : Нет
    Принудительно : Нет
    Нормализация звука речи : -31 dB
    cmixlev : -3.0 dB
    surmixlev : -3 dB
    dialnorm_Average : -31 dB
    dialnorm_Minimum : -31 dB
    dialnorm_Maximum : -31 dB

    Аудио #16
    Идентификатор : 17
    Формат : AC-3
    Формат/Информация : Audio Coding 3
    Коммерческое название : Dolby Digital
    Идентификатор кодека : A_AC3
    Продолжительность : 2 ч. 1 мин.
    Вид битрейта : Постоянный
    Битрейт : 640 Кбит/сек
    Канал(-ы) : 6 каналов
    Расположение каналов : L R C LFE Ls Rs
    Частота дискретизации : 48,0 КГц
    Частота кадров : 31,250 кадров/сек (1536 SPF)
    Метод сжатия : С потерями
    Размер потока : 558 Мбайт (3%)
    Язык : Английский
    Вид сервиса : Complete Main
    По умолчанию : Нет
    Принудительно : Нет
    Нормализация звука речи : -27 dB
    compr : -1.48 dB
    dynrng : -0.14 dB
    cmixlev : -3.0 dB
    surmixlev : -3 dB
    mixlevel : 285 dB
    roomtyp : Small
    dialnorm_Average : -27 dB
    dialnorm_Minimum : -27 dB
    dialnorm_Maximum : -27 dB

    Текст #1
    Идентификатор : 18
    Формат : UTF-8
    Идентификатор кодека : S_TEXT/UTF8
    Идентификатор кодека/Информация : UTF-8 Plain Text
    Продолжительность : 1 ч. 56 мин.
    Битрейт : 88 бит/сек
    Частота кадров : 0,181 кадр/сек
    Число элементов : 1268
    Размер потока : 75,7 КиБ (0%)
    Заголовок : Russian
    Язык : Русский
    По умолчанию : Нет
    Принудительно : Нет

    Текст #2
    Идентификатор : 19
    Формат : UTF-8
    Идентификатор кодека : S_TEXT/UTF8
    Идентификатор кодека/Информация : UTF-8 Plain Text
    Продолжительность : 1 ч. 57 мин.
    Битрейт : 87 бит/сек
    Частота кадров : 0,180 кадр/сек
    Число элементов : 1269
    Размер потока : 75,3 КиБ (0%)
    Заголовок : Russian by Alex Raynor
    Язык : Русский
    По умолчанию : Нет
    Принудительно : Нет

    Текст #3
    Идентификатор : 20
    Формат : UTF-8
    Идентификатор кодека : S_TEXT/UTF8
    Идентификатор кодека/Информация : UTF-8 Plain Text
    Продолжительность : 1 ч. 55 мин.
    Битрейт : 90 бит/сек
    Частота кадров : 0,207 кадр/сек
    Число элементов : 1435
    Размер потока : 76,8 КиБ (0%)
    Заголовок : Ukrainian
    Язык : Украинский
    По умолчанию : Нет
    Принудительно : Нет

    Текст #4
    Идентификатор : 21
    Формат : UTF-8
    Идентификатор кодека : S_TEXT/UTF8
    Идентификатор кодека/Информация : UTF-8 Plain Text
    Продолжительность : 1 ч. 59 мин.
    Битрейт : 59 бит/сек
    Частота кадров : 0,221 кадр/сек
    Число элементов : 1580
    Размер потока : 52,2 КиБ (0%)
    Заголовок : English Netflix
    Язык : Английский
    По умолчанию : Нет
    Принудительно : Нет

    Текст #5
    Идентификатор : 22
    Формат : UTF-8
    Идентификатор кодека : S_TEXT/UTF8
    Идентификатор кодека/Информация : UTF-8 Plain Text
    Продолжительность : 2 ч. 1 мин.
    Битрейт : 64 бит/сек
    Частота кадров : 0,244 кадр/сек
    Число элементов : 1780
    Размер потока : 57,4 КиБ (0%)
    Заголовок : English SDH / Netflix
    Язык : Английский
    По умолчанию : Нет
    Принудительно : Нет

    Меню
    00:00:00.000 : en:Main Titles
    00:03:08.229 : en:First Day in L.A.
    00:06:18.002 : en:The Ex-Presidents
    00:09:38.536 : en:Theory
    00:13:24.970 : en:First Time on the Board
    00:16:43.669 : en:Tyler Endicott
    00:20:58.882 : en:Surfing Lessons
    00:24:04.609 : en:Acceptance
    00:27:34.694 : en:Hair Samples
    00:31:05.488 : en:Latigo Beach
    00:39:00.004 : en:The Party
    00:43:33.652 : en:Indescribable Feelings
    00:49:31.927 : en:The Raid
    00:58:35.261 : en:A Feeling
    01:02:16.607 : en:Can't Take the Shot
    01:10:29.600 : en:Truth
    01:16:41.305 : en:Skydiving
    01:23:43.560 : en:Blackmail
    01:27:15.730 : en:Ninety Seconds
    01:34:51.352 : en:Pappas Dies
    01:41:14.318 : en:Rescuing Tyler
    01:50:12.897 : en:Bells Beach
    01:55:20.872 : en:This Moment
    01:58:41.823 : en:End Titles
    Загрузка...Cкриншот1 На гребне волны / Point Break (1991) [Remastered Shout Factory] BDRip 1080p [HEVC] 10 bit от OldGamer (RG RIPS CLUB)Загрузка...Cкриншот2 На гребне волны / Point Break (1991) [Remastered Shout Factory] BDRip 1080p [HEVC] 10 bit от OldGamer (RG RIPS CLUB)Загрузка...Cкриншот3 На гребне волны / Point Break (1991) [Remastered Shout Factory] BDRip 1080p [HEVC] 10 bit от OldGamer (RG RIPS CLUB)Загрузка...Cкриншот4 На гребне волны / Point Break (1991) [Remastered Shout Factory] BDRip 1080p [HEVC] 10 bit от OldGamer (RG RIPS CLUB)
    Поблагодарили: 14AlexsBond, AlexStallone, and50, anderb, AndresUA, Elm, gotgame1, Kiran, Niflung, SaN161NeK, sharkey71, stickstoff, vserginbox, Winsent
    Файлы: 1
    • На.гребне.волны.Point.Break.1991.Remastered.Shout.Factory.BDRip-HEVC.1080p.mkv

    Рейтинги КП и IMDB, кнопки "Раздайте, пожалуйста" и "Спасибо", а также мультитрекерная статистика доступны только зарегистрированным/авторизованным пользователям!

    OldGamer
    91151418.73 ГБ

    💬︎ Комментарии

    Добавление комментариев доступно только зарегистрированным/авторизованным пользователям.

    Всего: 4
    Аватар не указан
    XuMuK
    JackShredder писал(а):
    Конечно спасибо, но я не понимаю, зачем при увеличении качества\разрешения итп стало модно добавлять эту долбанную зернистость, откуда мода такая пошла? На 35 мм пленке нет такого, с этим чертовым шумом смотреть так себе.
    на 35-мм плёнке зерно с перловку, тут на самом деле всё почищено
    Аватар JackShredder
    JackShredder
    Мичман писал(а):
    А мне наоборот нравиться. Чёткости прибавляет. А мыло смотреть, такое себе удовольствие...
    Это лишний зрительный мусор, на мой взгляд, даже не резкость, откуда там четкость, только бегающие точки даже издали, глаз автоматом отвлекается на них.
    Аватар Мичман
    Мичман
    JackShredder писал(а):
    Конечно спасибо, но я не понимаю, зачем при увеличении качества\разрешения итп стало модно добавлять эту долбанную зернистость, откуда мода такая пошла? На 35 мм пленке нет такого, с этим чертовым шумом смотреть так себе.
    А мне наоборот нравиться. Чёткости прибавляет. А мыло смотреть, такое себе удовольствие...
    Аватар JackShredder
    JackShredder
    Конечно спасибо, но я не понимаю, зачем при увеличении качества\разрешения итп стало модно добавлять эту долбанную зернистость, откуда мода такая пошла? На 35 мм пленке нет такого, с этим чертовым шумом смотреть так себе.