Чат

⚫︎
Список изменений сайта - https://rips.club/changelog.html (обновлен 24.05.2024)
  • atomicheart
  • joker1001
  • Winsent
Онлайн (за 10 мин.): 3
  • Antilord90: Может кто переделает "Секс по дружбе" телики не воспроизводят!
  • Гл. Админ: Niflung, раздаю
  • VIS: Раздайте, пожалуйста, Большое путешествие / The Wild (2006) BDRip 1080p [HEVC] 10 bit от Мичман
  • Niflung: Раздайте, пожалуйста, Тихое место: Дилогия / A Quiet Place: Dilogy (2018-2020) UHD-BDRip 1080p [HEVC] 10 bit [HDR] от Mr. Fox
  • Antilord90: Сообщение удалено (удалил: Antilord90)
  • Niflung: Гл. Админ, Ладно, буду качать 10 bit версию)
  • Гл. Админ: Niflung, у меня только 10-битная версия
  • HANNIBAL: Гл. Админ, все норм раздача идет
  • Niflung: Раздайте, пожалуйста, Берегись автомобиля (1966) [Цветная версия] BDRip 1080p [HEVC] 8 bit от ADVOKAT69
  • Гл. Админ: HANNIBAL, Я удалил раздачу, которую заливал я. А другую заливал ты, и она была как на руторе. Теперь не понятно на что ты перезалил (в чем разница по сравнению с предыдущей, т.е. руторовской), потому что сидов нет. По моему ты не исправил, а сломал ) ( отредактировано: )
  • Гл. Админ: OldGamer, вообще задумка была сделать цветовую дифференциацию как в фильме Кин-дза-дза!, но поскольку желтый ник лучше подходит для випов, то немного не получилось.
  • Гл. Админ: HANNIBAL, их 2. Что там нужно исправлять?
  • Гл. Админ: HANNIBAL, Я думаю в добавок к зеленой могут появиться и другие цвета. ( отредактировано: )
  • HANNIBAL: Гл. Админ, и исправь раздачу Голая правда
  • HANNIBAL: Гл. Админ, не пора убрать с посторов эту зеленую надпись )))
  • HANNIBAL: Сообщение удалено (удалил: HANNIBAL)
  • Гл. Админ: HANNIBAL, админов теперь 2 ( отредактировано: )
  • HANNIBAL: админ привет
  • Antilord90: Раздайте, пожалуйста, Мальчикам это нравится / The House Bunny (2008) BDRip 1080p [HEVC] 10 bit от -Star-Lord- (RG RIPS CLUB)
  • Гл. Админ: Продлил доменное имя (адрес сайта) на год. Что-то он подорожал (24 евро вместо прежних 12). Ещё раз спасибо всем, кто поддерживает финансово. ( отредактировано: )
Отправка сообщений доступна только зарегистрированным/авторизованным пользователям.

🎥︎📺︎Оби-Ван Кеноби / Obi-Wan Kenobi (2022) [1 сезон] BDRip 1080p [HEVC] 10 bit от OldGamer (RG RIPS CLUB)


Обложка Оби-Ван Кеноби / Obi-Wan Kenobi (2022) [1 сезон] BDRip 1080p [HEVC] 10 bit от OldGamer (RG RIPS CLUB)
HEVC
10 bit
✂︎Сэмпл⤓︎Торрент🧲︎Магнет$Пожертвования

При перезаливке на другие сайты просьба указать автора и релиз-группу.


Год: 2022
Страна: США
Студия: Lucasfilm Ltd., Province of British Columbia Production Services Tax Credit, Walt Disney Pictures
Жанр: Фантастика, Боевик, Приключения
Длительность: ~00:45:00 серия

Режиссер: Дебора Чоу
В ролях: Юэн Макгрегор, Моусес Ингрэм, Вивьен Лира Блэр, Хейден Кристенсен, Сон Ган, Руперт Френд, Кумэйл Нанджиани, О’Ши Джексон мл., Индира Варма, Джимми Смитс

Описание: Джедай Оби-Ван Кеноби присматривает за юным Люком Скайуокером и прячется от охотников Империи во время изгнания на Татуине.


Релиз-группа: RIPS CLUB
Исходник: Obi-Wan.Kenobi.S01.1080p.Blu-ray.Remux.AVC.TrueHD.7.1.Atmos-SiCFoI
Видео: 1920x804, ~9037 Kbps
Аудио1: AC3, 2 ch, 320 Kbps - РусскийРусский, DUB (Flarrow Films)
Аудио2: AC3, 2 ch, 256 Kbps - РусскийРусский, DUB (Red Head Sound)
Аудио3: AC3, 6 ch, 640 Kbps - РусскийРусский, MVO (AlexFilm)
Аудио4: AC3, 6 ch, 640 Kbps - РусскийРусский, MVO (LostFilm)
Аудио5: AC3, 6 ch, 640 Kbps - РусскийРусский, MVO (HDRezka)
Аудио6: AC3, 6 ch, 384 Kbps - РусскийРусский, MVO (TVShows)
Аудио7: AC3, 6 ch, 640 Kbps - РусскийРусский, MVO (NewComers)
Аудио8: AC3, 2 ch, 192 Kbps - РусскийРусский, MVO (RuDub)
Аудио9: AC3, 6 ch, 448 Kbps - РусскийРусский, AVO (Юрий Сербин)
Аудио10: AC3, 6 ch, 640 Kbps - АнглийскийАнглийский
Субтитры: русские (full, forced), английские (SDH)

Как за несколько секунд удалить ненужные аудиодорожки и субтитры (Внимание! После удаления вы не сможете поддержать раздачу)


Лог (x265 info)x265 [info]: frame I: 277, Avg QP:18.15 kb/s: 20003.44
x265 [info]: frame P: 8996, Avg QP:19.14 kb/s: 15861.30
x265 [info]: frame B: 54920, Avg QP:21.95 kb/s: 7862.80
x265 [info]: Weighted P-Frames: Y:16.0% UV:13.4%
x265 [info]: Weighted B-Frames: Y:15.7% UV:12.3%
x265 [info]: encoded 64193 frames in 38419.47s (1.67 fps), 9036.09 kb/s, Avg QP:21.54
МедиаинфоОбщее
Уникальный идентификатор : 312898970943445320034821423496962908585 (0xEB66265760F31B8AB8530B19FAEA21A9)
Полное имя : \\.\Obi-Wan.Kenobi.S01E03.Part.III.mkv
Формат : Matroska
Версия формата : Version 4
Размер файла : 4,31 Гбайт
Продолжительность : 44 мин. 37 с.
Общий битрейт : 13,8 Мбит/сек
Частота кадров : 23,976 кадра/сек
Название фильма : Obi-Wan.Kenobi.S01E03.Part.III / Часть III
Имя трека/Расположение : 1
Кодирование выполнил : OldGamer
Тип содержимого : TV Show
Описание : Оби-Ван и Лея бегут из Империи. В конце концов Дарт Вейдер находит Оби-Вана, и начинается бой, в котором Оби-Вану едва удается спастись. Лея захвачена Ривой.
Дата выпуска : 2022-06-01
Дата записи : 2022-06-01
Программа кодирования : mkvmerge v85.0 ('Shame For You') 64-bit
Библиотека кодирования : libebml v1.4.5 + libmatroska v1.7.1 / xvid4psp5
Обложка : Yes
Attachments : cover.jpg
ACTOR : Юэн Макгрегор, Риа Килстедт, Zach Braff, AJ Troup, Shane Hartline, Ardeshir Radpour, Melanie Mosley, Will Westwater, Фрэнк Оз, Лиам Нисон, Dmitrious Bistrevsky, John Rosengrant, Dustin Ceithamer, James Earl Jones, Vivien Lyra Blair, Сон Кан, Мозес Ин...
ARTIST : Юэн Макгрегор, Риа Килстедт, Zach Braff, AJ Troup, Shane Hartline, Ardeshir Radpour, Melanie Mosley, Will Westwater, Фрэнк Оз, Лиам Нисон, Dmitrious Bistrevsky, John Rosengrant, Dustin Ceithamer, James Earl Jones, Vivien Lyra Blair, Сон Кан, Мозес Ин...
DIRECTOR : Deborah Chow
EPISODE.PART_NUM : 3
GENRE : НФ и Фэнтези, Боевик и Приключения
LAW_RATING : TV-14
PRODUCER : Thomas Hayslip, Katterli Frauenfelder
RATING : TV-14
SCREENPLAY_BY : Джоби Харольд, Hannah Friedman, Hossein Amini, Stuart Beattie
SEASON.PART_NUM : 1
SUMMARY : Оби-Ван и Лея бегут из Империи. В конце концов Дарт Вейдер находит Оби-Вана, и начинается бой, в котором Оби-Вану едва удается спастись. Лея захвачена Ривой.
SYNOPSIS : Оби-Ван и Лея бегут из Империи. В конце концов Дарт Вейдер находит Оби-Вана, и начинается бой, в котором Оби-Вану едва удается спастись. Лея захвачена Ривой.
WRITTEN_BY : Джоби Харольд, Hannah Friedman, Hossein Amini, Stuart Beattie

Видео
Идентификатор : 1
Формат : HEVC
Формат/Информация : High Efficiency Video Coding
Профиль формата : Main 10@L4.1@High
Идентификатор кодека : V_MPEGH/ISO/HEVC
Продолжительность : 44 мин. 37 с.
Битрейт : 9 037 Кбит/сек
Ширина : 1 920 пикселей
Высота : 804 пикселя
Соотношение сторон дисплея : 2,39:1
Режим частоты кадров : Постоянный
Частота кадров : 23,976 (24000/1001) кадра/сек
Цветовое пространство : YUV
Цветовая субдискретизация : 4:2:0
Битовая глубина : 10 бит
Бит/(Пиксели*Кадры) : 0.244
Размер потока : 2,82 Гбайт (65%)
Заголовок : Obi-Wan Kenobi S01E03 / Rip by OldGamer
Библиотека кодирования : x265 3.6+12-f3c5fbaff:[Windows][GCC 14.1.0][64 bit] 10bit
Параметры библиотеки кодирования : cpuid=1111039 / frame-threads=4 / numa-pools=16 / wpp / no-pmode / no-pme / no-psnr / no-ssim / log-level=2 / input-csp=1 / input-res=1920x804 / interlace=0 / total-frames=64193 / level-idc=41 / high-tier=1 / uhd-bd=0 / ref=5 / no-allow-non-conformance / no-repeat-headers / annexb / no-aud / no-eob / no-eos / no-hrd / info / hash=0 / temporal-layers=0 / open-gop / min-keyint=23 / keyint=240 / gop-lookahead=0 / bframes=16 / b-adapt=2 / b-pyramid / bframe-bias=0 / rc-lookahead=40 / lookahead-slices=0 / scenecut=40 / no-hist-scenecut / radl=0 / no-splice / no-intra-refresh / ctu=32 / min-cu-size=8 / rect / amp / max-tu-size=32 / tu-inter-depth=4 / tu-intra-depth=4 / limit-tu=1 / rdoq-level=2 / dynamic-rd=0.00 / no-ssim-rd / signhide / no-tskip / nr-intra=0 / nr-inter=0 / no-constrained-intra / no-strong-intra-smoothing / max-merge=5 / limit-refs=3 / no-limit-modes / me=3 / subme=7 / merange=57 / temporal-mvp / no-frame-dup / no-hme / weightp / weightb / no-analyze-src-pics / deblock=-2:-2 / no-sao / no-sao-non-deblock / rd=6 / selective-sao=0 / no-early-skip / no-rskip / no-fast-intra / no-tskip-fast / no-cu-lossless / b-intra / no-splitrd-skip / rdpenalty=0 / psy-rd=2.00 / psy-rdoq=1.00 / no-rd-refine / no-lossless / cbqpoffs=0 / crqpoffs=0 / rc=crf / crf=20.0 / qcomp=0.60 / qpstep=4 / stats-write=0 / stats-read=0 / vbv-maxrate=50000 / vbv-bufsize=50000 / vbv-init=0.9 / min-vbv-fullness=50.0 / max-vbv-fullness=80.0 / crf-max=0.0 / crf-min=0.0 / ipratio=1.40 / pbratio=1.30 / aq-mode=1 / aq-strength=0.90 / no-cutree / zone-count=1 / zones: / start-frame=58769 / end-frame=64193 / qp=36 / no-strict-cbr / qg-size=32 / no-rc-grain / qpmax=69 / qpmin=0 / no-const-vbv / sar=1 / overscan=0 / videoformat=5 / range=0 / colorprim=2 / transfer=2 / colormatrix=2 / chromaloc=0 / display-window=0 / cll=0,0 / min-luma=0 / max-luma=1023 / log2-max-poc-lsb=8 / vui-timing-info / vui-hrd-info / slices=1 / no-opt-qp-pps / no-opt-ref-list-length-pps / no-multi-pass-opt-rps / scenecut-bias=0.00 / no-opt-cu-delta-qp / no-aq-motion / no-hdr10 / no-hdr10-opt / no-dhdr10-opt / no-idr-recovery-sei / analysis-reuse-level=0 / analysis-save-reuse-level=0 / analysis-load-reuse-level=0 / scale-factor=0 / refine-intra=0 / refine-inter=0 / refine-mv=1 / refine-ctu-distortion=0 / no-limit-sao / ctu-info=0 / no-lowpass-dct / refine-analysis-type=0 / copy-pic=1 / max-ausize-factor=1.0 / no-dynamic-refine / no-single-sei / no-hevc-aq / no-svt / no-field / qp-adaptation-range=1.00 / scenecut-aware-qp=0conformance-window-offsets / right=0 / bottom=0 / decoder-max-rate=0 / no-vbv-live-multi-pass / no-mcstf / no-sbrc
Язык : Английский
По умолчанию : Да
Принудительно : Нет

Аудио #1
Идентификатор : 2
Формат : AC-3
Формат/Информация : Audio Coding 3
Коммерческое название : Dolby Digital
Идентификатор кодека : A_AC3
Продолжительность : 44 мин. 37 с.
Вид битрейта : Постоянный
Битрейт : 320 Кбит/сек
Канал(-ы) : 2 канала
Расположение каналов : L R
Частота дискретизации : 48,0 КГц
Частота кадров : 31,250 кадров/сек (1536 SPF)
Метод сжатия : С потерями
Размер потока : 102 Мбайт (2%)
Заголовок : DUB (Flarrow Films)
Язык : Русский
Вид сервиса : Complete Main
По умолчанию : Да
Принудительно : Нет
Нормализация звука речи : -31 dB
dialnorm_Average : -31 dB
dialnorm_Minimum : -31 dB
dialnorm_Maximum : -31 dB

Аудио #2
Идентификатор : 3
Формат : AC-3
Формат/Информация : Audio Coding 3
Коммерческое название : Dolby Digital
Идентификатор кодека : A_AC3
Продолжительность : 44 мин. 37 с.
Вид битрейта : Постоянный
Битрейт : 256 Кбит/сек
Канал(-ы) : 2 канала
Расположение каналов : L R
Частота дискретизации : 48,0 КГц
Частота кадров : 31,250 кадров/сек (1536 SPF)
Метод сжатия : С потерями
Размер потока : 81,7 Мбайт (2%)
Заголовок : DUB (Red Head Sound)
Язык : Русский
Вид сервиса : Complete Main
По умолчанию : Нет
Принудительно : Нет
Нормализация звука речи : -31 dB
dialnorm_Average : -31 dB
dialnorm_Minimum : -31 dB
dialnorm_Maximum : -31 dB

Аудио #3
Идентификатор : 4
Формат : AC-3
Формат/Информация : Audio Coding 3
Коммерческое название : Dolby Digital
Идентификатор кодека : A_AC3
Продолжительность : 44 мин. 37 с.
Вид битрейта : Постоянный
Битрейт : 640 Кбит/сек
Канал(-ы) : 6 каналов
Расположение каналов : L R C LFE Ls Rs
Частота дискретизации : 48,0 КГц
Частота кадров : 31,250 кадров/сек (1536 SPF)
Метод сжатия : С потерями
Размер потока : 204 Мбайт (5%)
Заголовок : MVO (AlexFilm)
Язык : Русский
Вид сервиса : Complete Main
По умолчанию : Нет
Принудительно : Нет
Нормализация звука речи : -27 dB
compr : -0.28 dB
dynrng : 8.38 dB
cmixlev : -3.0 dB
surmixlev : -3 dB
mixlevel : 285 dB
roomtyp : Small
dialnorm_Average : -27 dB
dialnorm_Minimum : -27 dB
dialnorm_Maximum : -27 dB

Аудио #4
Идентификатор : 5
Формат : AC-3
Формат/Информация : Audio Coding 3
Коммерческое название : Dolby Digital
Идентификатор кодека : A_AC3
Продолжительность : 44 мин. 37 с.
Вид битрейта : Постоянный
Битрейт : 640 Кбит/сек
Канал(-ы) : 6 каналов
Расположение каналов : L R C LFE Ls Rs
Частота дискретизации : 48,0 КГц
Частота кадров : 31,250 кадров/сек (1536 SPF)
Метод сжатия : С потерями
Размер потока : 204 Мбайт (5%)
Заголовок : MVO (LostFilm)
Язык : Русский
Вид сервиса : Complete Main
По умолчанию : Нет
Принудительно : Нет
Нормализация звука речи : -27 dB
compr : -0.28 dB
dynrng : 8.38 dB
cmixlev : -3.0 dB
surmixlev : -3 dB
mixlevel : 285 dB
roomtyp : Small
dialnorm_Average : -27 dB
dialnorm_Minimum : -27 dB
dialnorm_Maximum : -27 dB

Аудио #5
Идентификатор : 6
Формат : AC-3
Формат/Информация : Audio Coding 3
Коммерческое название : Dolby Digital
Идентификатор кодека : A_AC3
Продолжительность : 44 мин. 37 с.
Вид битрейта : Постоянный
Битрейт : 640 Кбит/сек
Канал(-ы) : 6 каналов
Расположение каналов : L R C LFE Ls Rs
Частота дискретизации : 48,0 КГц
Частота кадров : 31,250 кадров/сек (1536 SPF)
Метод сжатия : С потерями
Размер потока : 204 Мбайт (5%)
Заголовок : MVO (HDRezka)
Язык : Русский
Вид сервиса : Complete Main
По умолчанию : Нет
Принудительно : Нет
Нормализация звука речи : -27 dB
compr : -0.28 dB
dynrng : 8.38 dB
cmixlev : -3.0 dB
surmixlev : -3 dB
mixlevel : 285 dB
roomtyp : Small
dialnorm_Average : -27 dB
dialnorm_Minimum : -27 dB
dialnorm_Maximum : -27 dB

Аудио #6
Идентификатор : 7
Формат : AC-3
Формат/Информация : Audio Coding 3
Коммерческое название : Dolby Digital
Идентификатор кодека : A_AC3
Продолжительность : 44 мин. 37 с.
Вид битрейта : Постоянный
Битрейт : 384 Кбит/сек
Канал(-ы) : 6 каналов
Расположение каналов : L R C LFE Ls Rs
Частота дискретизации : 48,0 КГц
Частота кадров : 31,250 кадров/сек (1536 SPF)
Метод сжатия : С потерями
Размер потока : 123 Мбайт (3%)
Заголовок : MVO (TVShows)
Язык : Русский
Вид сервиса : Complete Main
По умолчанию : Нет
Принудительно : Нет
Нормализация звука речи : -31 dB
cmixlev : -3.0 dB
surmixlev : -3 dB
dialnorm_Average : -31 dB
dialnorm_Minimum : -31 dB
dialnorm_Maximum : -31 dB

Аудио #7
Идентификатор : 8
Формат : AC-3
Формат/Информация : Audio Coding 3
Коммерческое название : Dolby Digital
Идентификатор кодека : A_AC3
Продолжительность : 44 мин. 37 с.
Вид битрейта : Постоянный
Битрейт : 640 Кбит/сек
Канал(-ы) : 6 каналов
Расположение каналов : L R C LFE Ls Rs
Частота дискретизации : 48,0 КГц
Частота кадров : 31,250 кадров/сек (1536 SPF)
Метод сжатия : С потерями
Размер потока : 204 Мбайт (5%)
Заголовок : MVO (NewComers)
Язык : Русский
Вид сервиса : Complete Main
По умолчанию : Нет
Принудительно : Нет
Нормализация звука речи : -27 dB
compr : -0.28 dB
dynrng : 14.40 dB
cmixlev : -3.0 dB
surmixlev : -3 dB
mixlevel : 285 dB
roomtyp : Small
dialnorm_Average : -27 dB
dialnorm_Minimum : -27 dB
dialnorm_Maximum : -27 dB

Аудио #8
Идентификатор : 9
Формат : AC-3
Формат/Информация : Audio Coding 3
Коммерческое название : Dolby Digital
Идентификатор кодека : A_AC3
Продолжительность : 44 мин. 37 с.
Вид битрейта : Постоянный
Битрейт : 192 Кбит/сек
Канал(-ы) : 2 канала
Расположение каналов : L R
Частота дискретизации : 48,0 КГц
Частота кадров : 31,250 кадров/сек (1536 SPF)
Метод сжатия : С потерями
Размер потока : 61,3 Мбайт (1%)
Заголовок : MVO (RuDub)
Язык : Русский
Вид сервиса : Complete Main
По умолчанию : Нет
Принудительно : Нет
Нормализация звука речи : -31 dB
dialnorm_Average : -31 dB
dialnorm_Minimum : -31 dB
dialnorm_Maximum : -31 dB

Аудио #9
Идентификатор : 10
Формат : AC-3
Формат/Информация : Audio Coding 3
Коммерческое название : Dolby Digital
Идентификатор кодека : A_AC3
Продолжительность : 44 мин. 37 с.
Вид битрейта : Постоянный
Битрейт : 448 Кбит/сек
Канал(-ы) : 6 каналов
Расположение каналов : L R C LFE Ls Rs
Частота дискретизации : 48,0 КГц
Частота кадров : 31,250 кадров/сек (1536 SPF)
Метод сжатия : С потерями
Размер потока : 143 Мбайт (3%)
Заголовок : AVO (Юрий Сербин)
Язык : Русский
Вид сервиса : Complete Main
По умолчанию : Нет
Принудительно : Нет
Нормализация звука речи : -31 dB
cmixlev : -3.0 dB
surmixlev : -3 dB
dialnorm_Average : -31 dB
dialnorm_Minimum : -31 dB
dialnorm_Maximum : -31 dB

Аудио #10
Идентификатор : 11
Формат : AC-3
Формат/Информация : Audio Coding 3
Коммерческое название : Dolby Digital
Идентификатор кодека : A_AC3
Продолжительность : 44 мин. 37 с.
Вид битрейта : Постоянный
Битрейт : 640 Кбит/сек
Канал(-ы) : 6 каналов
Расположение каналов : L R C LFE Ls Rs
Частота дискретизации : 48,0 КГц
Частота кадров : 31,250 кадров/сек (1536 SPF)
Метод сжатия : С потерями
Размер потока : 204 Мбайт (5%)
Язык : Английский
Вид сервиса : Complete Main
По умолчанию : Нет
Принудительно : Нет
Нормализация звука речи : -27 dB
compr : -0.28 dB
cmixlev : -3.0 dB
surmixlev : -3 dB
mixlevel : 285 dB
roomtyp : Small
dialnorm_Average : -27 dB
dialnorm_Minimum : -27 dB
dialnorm_Maximum : -27 dB

Текст #1
Идентификатор : 12
Формат : UTF-8
Идентификатор кодека : S_TEXT/UTF8
Идентификатор кодека/Информация : UTF-8 Plain Text
Продолжительность : 40 мин. 52 с.
Битрейт : 0 бит/сек
Частота кадров : 0,001 кадр/сек
Число элементов : 2
Размер потока : 131 байт (0%)
Заголовок : Forced
Язык : Русский
По умолчанию : Да
Принудительно : Нет

Текст #2
Идентификатор : 13
Формат : UTF-8
Идентификатор кодека : S_TEXT/UTF8
Идентификатор кодека/Информация : UTF-8 Plain Text
Продолжительность : 40 мин. 43 с.
Битрейт : 61 бит/сек
Частота кадров : 0,155 кадр/сек
Число элементов : 379
Размер потока : 18,2 КиБ (0%)
Заголовок : Full | Где тексты, Лебовски?
Язык : Русский
По умолчанию : Нет
Принудительно : Нет

Текст #3
Идентификатор : 14
Формат : UTF-8
Идентификатор кодека : S_TEXT/UTF8
Идентификатор кодека/Информация : UTF-8 Plain Text
Продолжительность : 40 мин. 48 с.
Битрейт : 59 бит/сек
Частота кадров : 0,156 кадр/сек
Число элементов : 381
Размер потока : 17,6 КиБ (0%)
Заголовок : Full | homo SUBiens
Язык : Русский
По умолчанию : Нет
Принудительно : Нет

Текст #4
Идентификатор : 15
Формат : UTF-8
Идентификатор кодека : S_TEXT/UTF8
Идентификатор кодека/Информация : UTF-8 Plain Text
Продолжительность : 40 мин. 43 с.
Битрейт : 38 бит/сек
Частота кадров : 0,156 кадр/сек
Число элементов : 382
Размер потока : 11,5 КиБ (0%)
Заголовок : Full
Язык : Английский
По умолчанию : Нет
Принудительно : Нет

Текст #5
Идентификатор : 16
Формат : UTF-8
Идентификатор кодека : S_TEXT/UTF8
Идентификатор кодека/Информация : UTF-8 Plain Text
Продолжительность : 40 мин. 52 с.
Битрейт : 47 бит/сек
Частота кадров : 0,190 кадр/сек
Число элементов : 465
Размер потока : 14,1 КиБ (0%)
Заголовок : Full | SDH
Язык : Английский
По умолчанию : Нет
Принудительно : Нет

Меню
00:00:00.000 : en:Recap
00:01:29.715 : en:Scene 1
00:06:52.412 : en:Scene 2
00:22:03.405 : en:Scene 3
00:32:26.528 : en:Scene 4
00:40:54.077 : en:Credits
Загрузка...Cкриншот1 Оби-Ван Кеноби / Obi-Wan Kenobi (2022) [1 сезон] BDRip 1080p [HEVC] 10 bit от OldGamer (RG RIPS CLUB)Загрузка...Cкриншот2 Оби-Ван Кеноби / Obi-Wan Kenobi (2022) [1 сезон] BDRip 1080p [HEVC] 10 bit от OldGamer (RG RIPS CLUB)Загрузка...Cкриншот3 Оби-Ван Кеноби / Obi-Wan Kenobi (2022) [1 сезон] BDRip 1080p [HEVC] 10 bit от OldGamer (RG RIPS CLUB)Загрузка...Cкриншот4 Оби-Ван Кеноби / Obi-Wan Kenobi (2022) [1 сезон] BDRip 1080p [HEVC] 10 bit от OldGamer (RG RIPS CLUB)
Поблагодарили: 3han-nik, Kiran, qq
Файлы: 6
  • Obi-Wan Kenobi
    • 5.06 ГБObi-Wan.Kenobi.S01E01.Part.I.mkv
    • 3.09 ГБObi-Wan.Kenobi.S01E02.Part.II.mkv
    • 4.31 ГБObi-Wan.Kenobi.S01E03.Part.III.mkv
    • 3.32 ГБObi-Wan.Kenobi.S01E04.Part.IV.mkv
    • 3.92 ГБObi-Wan.Kenobi.S01E05.Part.V.mkv
    • 5.05 ГБObi-Wan.Kenobi.S01E06.Part.VI.mkv

Рейтинги КП и IMDB, кнопки "Раздайте, пожалуйста" и "Спасибо", а также мультитрекерная статистика доступны только зарегистрированным/авторизованным пользователям!

OldGamer
1231070(6) 24.75 ГБ

💬︎ Комментарии

Добавление комментариев доступно только зарегистрированным/авторизованным пользователям.