Чат

⚫︎
Список изменений сайта - https://rips.club/changelog.html (обновлен 24.05.2024)
    Онлайн (за 10 мин.): 0
    Отправка сообщений доступна только зарегистрированным/авторизованным пользователям.

    🎥︎Повелители вселенной / Masters of the Universe (1987) BDRip 1080p [HEVC] 10 bit от OldGamer (RG RIPS CLUB)


    Обложка Повелители вселенной / Masters of the Universe (1987) BDRip 1080p [HEVC] 10 bit от OldGamer (RG RIPS CLUB)
    HEVC
    10 bit
    ✂︎Сэмпл⤓︎Торрент🧲︎Магнет$Пожертвования

    При перезаливке на другие сайты просьба указать автора и релиз-группу.


    Год: 1987
    Страна: США
    Студия: Cannon Films, Cannon Group, Edward R. Pressman Film Corporation, Golan / Globus Production
    Жанр: Фантастика, Фэнтези, Боевик, Приключения
    Длительность: 01:45:35

    Режиссер: Гэри Годдард
    В ролях: Дольф Лундгрен, Фрэнк Ланджелла, Мег Фостер, Билли Барти, Кортни Кокс, Роберт Данкан МакНил, Джон Сайфер, Челси Филд, Джеймс Толкан, Кристина Пиклз

    Описание: Некогда прекрасная планета Этерния лежит в развалинах - она стала жертвой демонического Скелетора и его подлых прихлебателей. Герой Этернии Химэн и его сторонники бегут на планету странных существ и обычаев. Это Земля - следующее поле боя со Скелетором и его пособниками.


    Релиз-группа: RIPS CLUB
    Исходник: Blu-Ray Remux 1080p (rutracker)
    Видео: 1920x1080, ~10.8 Mbps
    Аудио1: AC3, 2 ch, 192 Kbps - РусскийРусский, MVO (СТС)
    Аудио2: AC3, 2 ch, 192 Kbps - РусскийРусский, MVO (ТВ3)
    Аудио3: AC3, 2 ch, 192 Kbps - РусскийРусский, DVO ("СВ-Кадр" для ТВ6)
    Аудио4: AC3, 2 ch, 640 Kbps - РусскийРусский, AVO (Юрий Живов)
    Аудио5: AC3, 2 ch, 224 Kbps - РусскийРусский, AVO (Леонид Володарский поздний)
    Аудио6: AC3, 2 ch, 192 Kbps - РусскийРусский, AVO (Леонид Володарский ранний)
    Аудио7: AC3, 2 ch, 192 Kbps - РусскийРусский, AVO (Александр Готлиб)
    Аудио8: AC3, 2 ch, 192 Kbps - РусскийРусский, AVO (Михаил Иванов)
    Аудио9: AC3, 2 ch, 192 Kbps - РусскийРусский, AVO (Андрей Гаврилов)
    Аудио10: AC3, 2 ch, 192 Kbps - РусскийРусский, VO (RXM128)
    Аудио11: AC3, 2 ch, 640 Kbps - АнглийскийАнглийский
    Субтитры: английские (SDH)

    Как за несколько секунд удалить ненужные аудиодорожки и субтитры (Внимание! После удаления вы не сможете поддержать раздачу)


    Лог (x265 info)x265 [info]: frame I: 639, Avg QP:18.34 kb/s: 25247.64
    x265 [info]: frame P: 32848, Avg QP:19.61 kb/s: 18875.29
    x265 [info]: frame B: 118385, Avg QP:21.65 kb/s: 8541.02
    x265 [info]: Weighted P-Frames: Y:9.8% UV:8.6%
    x265 [info]: Weighted B-Frames: Y:9.6% UV:8.0%
    x265 [info]: encoded 151872 frames in 138673.77s (1.10 fps), 10846.49 kb/s, Avg QP:21.19
    МедиаинфоОбщее
    Уникальный идентификатор : 337229086666723609415965916669050950107 (0xFDB3F5A9323E7E3345BB534F7E2511DB)
    Полное имя : \\.\Повелители.вселенной.Masters.Of.The.Universe.1987.BDRip-HEVC.1080p.mkv
    Формат : Matroska
    Версия формата : Version 4
    Размер файла : 10,2 Гбайт
    Продолжительность : 1 ч. 45 мин.
    Общий битрейт : 13,9 Мбит/сек
    Частота кадров : 23,976 кадра/сек
    Название фильма : Повелители вселенной
    Кодирование выполнил : OldGamer
    Тип содержимого : Movie
    Дата выпуска : 1987-08-07
    Дата записи : 1987-08-07
    Дата кодирования : 2024-06-20 11:28:28 UTC
    Программа кодирования : mkvmerge v85.0 ('Shame For You') 64-bit
    Библиотека кодирования : libebml v1.4.5 + libmatroska v1.7.1 / xvid4psp5
    Обложка : Yes
    Attachments : cover.jpg
    ACTOR : Dolph Lundgren, Frank Langella, Meg Foster, Billy Barty, Кортни Кокс, Robert Duncan McNeill, Jon Cypher, Chelsea Field, James Tolkan, Christina Pickles, Tony Carroll, Pons Maar, Anthony De Longis, Robert Towers, Barry Livingston, Jessica Nelson, Gwyn...
    ARTIST : Dolph Lundgren, Frank Langella, Meg Foster, Billy Barty, Кортни Кокс, Robert Duncan McNeill, Jon Cypher, Chelsea Field, James Tolkan, Christina Pickles, Tony Carroll, Pons Maar, Anthony De Longis, Robert Towers, Barry Livingston, Jessica Nelson, Gwyn...
    DIRECTOR : Gary Goddard
    GENRE : боевик, фэнтези, фантастика, приключения, триллер
    LAW_RATING : PG
    PRODUCER : Yoram Globus, Menahem Golan
    PRODUCTION_STUDIO : Golan-Globus Productions
    RATING : PG
    SCREENPLAY_BY : David Odell
    SYNOPSIS : Некогда прекрасная планета Этерния лежит в развалинах, став жертвой демонического Скелета и его подлых прихлебателей. Герой Этернии Химэн и его сторонники бегут на планету странных существ и обычаев. Это Земля, следущее поле боя со Скелетом и его пособниками!
    WRITTEN_BY : David Odell

    Видео
    Идентификатор : 1
    Формат : HEVC
    Формат/Информация : High Efficiency Video Coding
    Профиль формата : Main 10@L4.1@High
    Идентификатор кодека : V_MPEGH/ISO/HEVC
    Продолжительность : 1 ч. 45 мин.
    Битрейт : 10,8 Мбит/сек
    Ширина : 1 920 пикселей
    Высота : 1 080 пикселей
    Соотношение сторон дисплея : 16:9
    Режим частоты кадров : Постоянный
    Частота кадров : 23,976 (24000/1001) кадра/сек
    Цветовое пространство : YUV
    Цветовая субдискретизация : 4:2:0
    Битовая глубина : 10 бит
    Бит/(Пиксели*Кадры) : 0.218
    Размер потока : 8,00 Гбайт (78%)
    Заголовок : Masters Of The Universe / Rip by OldGamer
    Библиотека кодирования : x265 3.5+110-8ee01d45b:[Windows][GCC 13.2.0][64 bit] 10bit
    Параметры библиотеки кодирования : cpuid=1111039 / frame-threads=4 / numa-pools=16 / wpp / no-pmode / no-pme / no-psnr / no-ssim / log-level=2 / input-csp=1 / input-res=1920x1080 / interlace=0 / total-frames=151872 / level-idc=41 / high-tier=1 / uhd-bd=0 / ref=5 / no-allow-non-conformance / no-repeat-headers / annexb / no-aud / no-eob / no-eos / no-hrd / info / hash=0 / temporal-layers=0 / open-gop / min-keyint=23 / keyint=240 / gop-lookahead=0 / bframes=16 / b-adapt=2 / b-pyramid / bframe-bias=0 / rc-lookahead=40 / lookahead-slices=0 / scenecut=40 / no-hist-scenecut / radl=0 / no-splice / no-intra-refresh / ctu=32 / min-cu-size=8 / rect / amp / max-tu-size=32 / tu-inter-depth=4 / tu-intra-depth=4 / limit-tu=1 / rdoq-level=2 / dynamic-rd=0.00 / no-ssim-rd / signhide / no-tskip / nr-intra=0 / nr-inter=0 / no-constrained-intra / no-strong-intra-smoothing / max-merge=5 / limit-refs=3 / no-limit-modes / me=3 / subme=7 / merange=57 / temporal-mvp / no-frame-dup / no-hme / weightp / weightb / no-analyze-src-pics / deblock=-2:-2 / no-sao / no-sao-non-deblock / rd=6 / selective-sao=0 / no-early-skip / no-rskip / no-fast-intra / no-tskip-fast / no-cu-lossless / b-intra / no-splitrd-skip / rdpenalty=0 / psy-rd=2.00 / psy-rdoq=1.00 / no-rd-refine / no-lossless / cbqpoffs=0 / crqpoffs=0 / rc=crf / crf=19.8 / qcomp=0.60 / qpstep=4 / stats-write=0 / stats-read=0 / vbv-maxrate=50000 / vbv-bufsize=50000 / vbv-init=0.9 / min-vbv-fullness=50.0 / max-vbv-fullness=80.0 / crf-max=0.0 / crf-min=0.0 / ipratio=1.40 / pbratio=1.30 / aq-mode=1 / aq-strength=1.00 / no-cutree / zone-count=1 / zones: / start-frame=145758 / end-frame=151872 / qp=36 / no-strict-cbr / qg-size=32 / no-rc-grain / qpmax=69 / qpmin=0 / no-const-vbv / sar=1 / overscan=0 / videoformat=5 / range=0 / colorprim=2 / transfer=2 / colormatrix=2 / chromaloc=0 / display-window=0 / cll=0,0 / min-luma=0 / max-luma=1023 / log2-max-poc-lsb=8 / vui-timing-info / vui-hrd-info / slices=1 / no-opt-qp-pps / no-opt-ref-list-length-pps / no-multi-pass-opt-rps / scenecut-bias=0.00 / no-opt-cu-delta-qp / no-aq-motion / no-hdr10 / no-hdr10-opt / no-dhdr10-opt / no-idr-recovery-sei / analysis-reuse-level=0 / analysis-save-reuse-level=0 / analysis-load-reuse-level=0 / scale-factor=0 / refine-intra=0 / refine-inter=0 / refine-mv=1 / refine-ctu-distortion=0 / no-limit-sao / ctu-info=0 / no-lowpass-dct / refine-analysis-type=0 / copy-pic=1 / max-ausize-factor=1.0 / no-dynamic-refine / no-single-sei / no-hevc-aq / no-svt / no-field / qp-adaptation-range=1.00 / scenecut-aware-qp=0conformance-window-offsets / right=0 / bottom=0 / decoder-max-rate=0 / no-vbv-live-multi-pass / no-mcstf / no-sbrc
    Язык : Английский
    По умолчанию : Да
    Принудительно : Нет

    Аудио #1
    Идентификатор : 2
    Формат : AC-3
    Формат/Информация : Audio Coding 3
    Коммерческое название : Dolby Digital
    Идентификатор кодека : A_AC3
    Продолжительность : 1 ч. 45 мин.
    Вид битрейта : Постоянный
    Битрейт : 192 Кбит/сек
    Канал(-ы) : 2 канала
    Расположение каналов : L R
    Частота дискретизации : 48,0 КГц
    Частота кадров : 31,250 кадров/сек (1536 SPF)
    Метод сжатия : С потерями
    Размер потока : 145 Мбайт (1%)
    Заголовок : MVO (СТС)
    Язык : Русский
    Вид сервиса : Complete Main
    По умолчанию : Да
    Принудительно : Нет
    Нормализация звука речи : -27 dB
    compr : -0.28 dB
    dialnorm_Average : -27 dB
    dialnorm_Minimum : -27 dB
    dialnorm_Maximum : -27 dB

    Аудио #2
    Идентификатор : 3
    Формат : AC-3
    Формат/Информация : Audio Coding 3
    Коммерческое название : Dolby Digital
    Идентификатор кодека : A_AC3
    Продолжительность : 1 ч. 45 мин.
    Вид битрейта : Постоянный
    Битрейт : 192 Кбит/сек
    Канал(-ы) : 2 канала
    Расположение каналов : L R
    Частота дискретизации : 48,0 КГц
    Частота кадров : 31,250 кадров/сек (1536 SPF)
    Метод сжатия : С потерями
    Размер потока : 145 Мбайт (1%)
    Заголовок : MVO (ТВ3)
    Язык : Русский
    Вид сервиса : Complete Main
    По умолчанию : Нет
    Принудительно : Нет
    Нормализация звука речи : -27 dB
    compr : -0.28 dB
    dialnorm_Average : -27 dB
    dialnorm_Minimum : -27 dB
    dialnorm_Maximum : -27 dB

    Аудио #3
    Идентификатор : 4
    Формат : AC-3
    Формат/Информация : Audio Coding 3
    Коммерческое название : Dolby Digital
    Идентификатор кодека : A_AC3
    Продолжительность : 1 ч. 45 мин.
    Вид битрейта : Постоянный
    Битрейт : 192 Кбит/сек
    Канал(-ы) : 2 канала
    Расположение каналов : L R
    Частота дискретизации : 48,0 КГц
    Частота кадров : 31,250 кадров/сек (1536 SPF)
    Метод сжатия : С потерями
    Размер потока : 145 Мбайт (1%)
    Заголовок : DVO ("СВ-Кадр" для ТВ6)
    Язык : Русский
    Вид сервиса : Complete Main
    По умолчанию : Нет
    Принудительно : Нет
    Нормализация звука речи : -27 dB
    compr : -0.28 dB
    dialnorm_Average : -27 dB
    dialnorm_Minimum : -27 dB
    dialnorm_Maximum : -27 dB

    Аудио #4
    Идентификатор : 5
    Формат : AC-3
    Формат/Информация : Audio Coding 3
    Коммерческое название : Dolby Digital
    Идентификатор кодека : A_AC3
    Продолжительность : 1 ч. 45 мин.
    Вид битрейта : Постоянный
    Битрейт : 640 Кбит/сек
    Канал(-ы) : 2 канала
    Расположение каналов : L R
    Частота дискретизации : 48,0 КГц
    Частота кадров : 31,250 кадров/сек (1536 SPF)
    Метод сжатия : С потерями
    Размер потока : 483 Мбайт (5%)
    Заголовок : AVO (Юрий Живов)
    Язык : Русский
    Вид сервиса : Complete Main
    По умолчанию : Нет
    Принудительно : Нет
    Нормализация звука речи : -27 dB
    compr : -0.28 dB
    dsurmod : Not Dolby Surround encoded
    mixlevel : 285 dB
    roomtyp : Small
    dialnorm_Average : -27 dB
    dialnorm_Minimum : -27 dB
    dialnorm_Maximum : -27 dB

    Аудио #5
    Идентификатор : 6
    Формат : AC-3
    Формат/Информация : Audio Coding 3
    Коммерческое название : Dolby Digital
    Идентификатор кодека : A_AC3
    Продолжительность : 1 ч. 45 мин.
    Вид битрейта : Постоянный
    Битрейт : 224 Кбит/сек
    Канал(-ы) : 2 канала
    Расположение каналов : L R
    Частота дискретизации : 48,0 КГц
    Частота кадров : 31,250 кадров/сек (1536 SPF)
    Метод сжатия : С потерями
    Размер потока : 169 Мбайт (2%)
    Заголовок : AVO (Леонид Володарский поздний)
    Язык : Русский
    Вид сервиса : Complete Main
    По умолчанию : Нет
    Принудительно : Нет
    Нормализация звука речи : -31 dB
    compr : -0.28 dB
    dynrng : -18.20 dB
    mixlevel : 285 dB
    roomtyp : Small
    dialnorm_Average : -31 dB
    dialnorm_Minimum : -31 dB
    dialnorm_Maximum : -31 dB

    Аудио #6
    Идентификатор : 7
    Формат : AC-3
    Формат/Информация : Audio Coding 3
    Коммерческое название : Dolby Digital
    Идентификатор кодека : A_AC3
    Продолжительность : 1 ч. 45 мин.
    Вид битрейта : Постоянный
    Битрейт : 192 Кбит/сек
    Канал(-ы) : 2 канала
    Расположение каналов : L R
    Частота дискретизации : 48,0 КГц
    Частота кадров : 31,250 кадров/сек (1536 SPF)
    Метод сжатия : С потерями
    Размер потока : 145 Мбайт (1%)
    Заголовок : AVO (Леонид Володарский ранний)
    Язык : Русский
    Вид сервиса : Complete Main
    По умолчанию : Нет
    Принудительно : Нет
    Нормализация звука речи : -31 dB
    dialnorm_Average : -31 dB
    dialnorm_Minimum : -31 dB
    dialnorm_Maximum : -31 dB

    Аудио #7
    Идентификатор : 8
    Формат : AC-3
    Формат/Информация : Audio Coding 3
    Коммерческое название : Dolby Digital
    Идентификатор кодека : A_AC3
    Продолжительность : 1 ч. 45 мин.
    Вид битрейта : Постоянный
    Битрейт : 192 Кбит/сек
    Канал(-ы) : 2 канала
    Расположение каналов : L R
    Частота дискретизации : 48,0 КГц
    Частота кадров : 31,250 кадров/сек (1536 SPF)
    Метод сжатия : С потерями
    Размер потока : 145 Мбайт (1%)
    Заголовок : AVO (Александр Готлиб)
    Язык : Русский
    Вид сервиса : Complete Main
    По умолчанию : Нет
    Принудительно : Нет
    Нормализация звука речи : -27 dB
    compr : -0.28 dB
    dialnorm_Average : -27 dB
    dialnorm_Minimum : -27 dB
    dialnorm_Maximum : -27 dB

    Аудио #8
    Идентификатор : 9
    Формат : AC-3
    Формат/Информация : Audio Coding 3
    Коммерческое название : Dolby Digital
    Идентификатор кодека : A_AC3
    Продолжительность : 1 ч. 45 мин.
    Вид битрейта : Постоянный
    Битрейт : 192 Кбит/сек
    Канал(-ы) : 2 канала
    Расположение каналов : L R
    Частота дискретизации : 48,0 КГц
    Частота кадров : 31,250 кадров/сек (1536 SPF)
    Метод сжатия : С потерями
    Размер потока : 145 Мбайт (1%)
    Заголовок : AVO (Михаил Иванов)
    Язык : Русский
    Вид сервиса : Complete Main
    По умолчанию : Нет
    Принудительно : Нет
    Нормализация звука речи : -31 dB
    compr : -0.28 dB
    dynrng : -4.30 dB
    mixlevel : 285 dB
    roomtyp : Small
    dialnorm_Average : -31 dB
    dialnorm_Minimum : -31 dB
    dialnorm_Maximum : -31 dB

    Аудио #9
    Идентификатор : 10
    Формат : AC-3
    Формат/Информация : Audio Coding 3
    Коммерческое название : Dolby Digital
    Идентификатор кодека : A_AC3
    Продолжительность : 1 ч. 45 мин.
    Вид битрейта : Постоянный
    Битрейт : 192 Кбит/сек
    Канал(-ы) : 2 канала
    Расположение каналов : L R
    Частота дискретизации : 48,0 КГц
    Частота кадров : 31,250 кадров/сек (1536 SPF)
    Метод сжатия : С потерями
    Размер потока : 145 Мбайт (1%)
    Заголовок : AVO (Андрей Гаврилов)
    Язык : Русский
    Вид сервиса : Complete Main
    По умолчанию : Нет
    Принудительно : Нет
    Нормализация звука речи : -27 dB
    compr : -0.28 dB
    dialnorm_Average : -27 dB
    dialnorm_Minimum : -27 dB
    dialnorm_Maximum : -27 dB

    Аудио #10
    Идентификатор : 11
    Формат : AC-3
    Формат/Информация : Audio Coding 3
    Коммерческое название : Dolby Digital
    Идентификатор кодека : A_AC3
    Продолжительность : 1 ч. 45 мин.
    Вид битрейта : Постоянный
    Битрейт : 192 Кбит/сек
    Канал(-ы) : 2 канала
    Расположение каналов : L R
    Частота дискретизации : 48,0 КГц
    Частота кадров : 31,250 кадров/сек (1536 SPF)
    Метод сжатия : С потерями
    Размер потока : 145 Мбайт (1%)
    Заголовок : VO (RXM128)
    Язык : Русский
    Вид сервиса : Complete Main
    По умолчанию : Нет
    Принудительно : Нет
    Нормализация звука речи : -31 dB
    compr : -0.28 dB
    dsurmod : Not Dolby Surround encoded
    ltrtcmixlev : 3.0 dB
    ltrtsurmixlev : 3.0 dB
    lorocmixlev : 3.0 dB
    lorosurmixlev : 3.0 dB
    dialnorm_Average : -31 dB
    dialnorm_Minimum : -31 dB
    dialnorm_Maximum : -31 dB

    Аудио #11
    Идентификатор : 12
    Формат : AC-3
    Формат/Информация : Audio Coding 3
    Коммерческое название : Dolby Digital
    Идентификатор кодека : A_AC3
    Продолжительность : 1 ч. 45 мин.
    Вид битрейта : Постоянный
    Битрейт : 640 Кбит/сек
    Канал(-ы) : 2 канала
    Расположение каналов : L R
    Частота дискретизации : 48,0 КГц
    Частота кадров : 31,250 кадров/сек (1536 SPF)
    Метод сжатия : С потерями
    Размер потока : 483 Мбайт (5%)
    Язык : Английский
    Вид сервиса : Complete Main
    По умолчанию : Нет
    Принудительно : Нет
    Нормализация звука речи : -27 dB
    compr : -0.28 dB
    dynrng : -8.70 dB
    dsurmod : Not Dolby Surround encoded
    mixlevel : 285 dB
    roomtyp : Small
    dialnorm_Average : -27 dB
    dialnorm_Minimum : -27 dB
    dialnorm_Maximum : -27 dB

    Текст #1
    Идентификатор : 13
    Формат : UTF-8
    Идентификатор кодека : S_TEXT/UTF8
    Идентификатор кодека/Информация : UTF-8 Plain Text
    Продолжительность : 1 ч. 44 мин.
    Битрейт : 56 бит/сек
    Частота кадров : 0,186 кадр/сек
    Число элементов : 1172
    Размер потока : 43,2 КиБ (0%)
    Заголовок : full
    Язык : Английский
    По умолчанию : Нет
    Принудительно : Нет

    Текст #2
    Идентификатор : 14
    Формат : UTF-8
    Идентификатор кодека : S_TEXT/UTF8
    Идентификатор кодека/Информация : UTF-8 Plain Text
    Продолжительность : 1 ч. 44 мин.
    Битрейт : 59 бит/сек
    Частота кадров : 0,203 кадр/сек
    Число элементов : 1278
    Размер потока : 45,8 КиБ (0%)
    Заголовок : full_sdh
    Язык : Английский
    По умолчанию : Нет
    Принудительно : Нет

    Меню
    00:00:00.000 : en:Credits
    00:02:43.037 : en:Skeletor's Decree
    00:05:24.532 : en:The Cosmic Key
    00:11:13.631 : en:Through the Open Door
    00:16:43.669 : en:Escape to Earth
    00:20:09.416 : en:Fast Food and Farewell
    00:24:34.514 : en:Cemetary Discovery
    00:27:05.040 : en:Invitation to the Dance
    00:29:45.450 : en:Flaming Fantasy
    00:33:02.772 : en:Julie's Rescuers
    00:36:56.255 : en:Kevin Goes for a Ride
    00:41:14.305 : en:Primitive Land Boat
    00:42:21.872 : en:Penality for Failure
    00:45:09.498 : en:Mixed Signals
    00:50:12.509 : en:Collaring Kevin
    00:52:52.961 : en:Julie and Friends
    00:55:44.299 : en:Music Store War
    01:01:18.383 : en:What Mom Wants
    01:04:30.449 : en:Backup Needed
    01:06:08.214 : en:Air Centurions
    01:10:49.870 : en:Taken Prisoner
    01:16:08.814 : en:Seeking the Right Tones
    01:21:12.367 : en:In Skeletor's Hands
    01:24:21.139 : en:"Ready to Deal Now"?
    01:26:53.666 : en:Master of the Universe
    01:29:48.508 : en:Greyskull Court in Chaos
    01:33:01.325 : en:Our Final Battle
    01:36:20.900 : en:Good Journey
    01:39:06.941 : en:New, Improved Future
    01:41:18.072 : en:End Credits
    01:45:34.077 : en:End
    Загрузка...Cкриншот1 Повелители вселенной / Masters of the Universe (1987) BDRip 1080p [HEVC] 10 bit от OldGamer (RG RIPS CLUB)Загрузка...Cкриншот2 Повелители вселенной / Masters of the Universe (1987) BDRip 1080p [HEVC] 10 bit от OldGamer (RG RIPS CLUB)Загрузка...Cкриншот3 Повелители вселенной / Masters of the Universe (1987) BDRip 1080p [HEVC] 10 bit от OldGamer (RG RIPS CLUB)Загрузка...Cкриншот4 Повелители вселенной / Masters of the Universe (1987) BDRip 1080p [HEVC] 10 bit от OldGamer (RG RIPS CLUB)
    Поблагодарили: 7AlexsBond, AndresUA, han-nik, Kiran, maxim2201, Name5000, Niflung
    Файлы: 1
    • Повелители.вселенной.Masters.Of.The.Universe.1987.BDRip-HEVC.1080p.mkv

    Рейтинги КП и IMDB, кнопки "Раздайте, пожалуйста" и "Спасибо", а также мультитрекерная статистика доступны только зарегистрированным/авторизованным пользователям!

    OldGamer
    202158010.25 ГБ

    💬︎ Комментарии

    Добавление комментариев доступно только зарегистрированным/авторизованным пользователям.