Чат

⚫︎
Список изменений сайта - https://rips.club/changelog.html (обновлен 24.05.2024)
    Онлайн (за 10 мин.): 0
    Отправка сообщений доступна только зарегистрированным/авторизованным пользователям.

    🎥︎Бахубали: Начало / Baahubali: The Beginning (2015) BDRip 1080p [HEVC] 10 bit от OldGamer (RG RIPS CLUB)


    Обложка Бахубали: Начало / Baahubali: The Beginning (2015) BDRip 1080p [HEVC] 10 bit от OldGamer (RG RIPS CLUB)
    HEVC
    10 bit
    ✂︎Сэмпл⤓︎Торрент🧲︎Магнет$Пожертвования

    При перезаливке на другие сайты просьба указать автора и релиз-группу.


    Год: 2015
    Страна: Индия
    Студия: Arka Mediaworks
    Жанр: Фэнтези, Боевик, Мелодрама
    Длительность: 02:39:24

    Режиссер: С.С. Раджамули
    В ролях: Прабхас, Рана Даггубати, Анушка Шетти, Таманна Бхатия, Сатхьярадж, Рамья Кришна, Нассар, Рохини, Мека Рама Кришна, Адиви Сеш

    Описание: Раненая женщина с младенцем на руках убегает от вооружённых солдат. Понимая, что долго не протянет, она возносит последнюю молитву богам и просит спасти жизнь ребёнка, а сама погружается на дно реки, держа младенца в вытянутой руке над водой. На следующий день его находят местные жители и решают усыновить. Спустя годы мальчик превращается в крепкого и рослого парня Шивуду, наделённого невероятной силой. Однажды он находит маску и решает во что бы то ни стало разыскать её владельца, не подозревая, что она принадлежит прекрасной воительнице Авантике, которая всем своим кланом пытается вызволить королеву Девасену из плена тирана Бхаллаладевы.


    Релиз-группа: RIPS CLUB
    Исходник: Blu-Ray Remux 1080p (kinozal)
    Видео: 1920x826, 8340 Kbps
    Аудио1: AC3, 2 ch, 192 Kbps - РусскийРусский, DUB (СТС)
    Аудио2: AC3, 2 ch, 192 Kbps - РусскийРусский, MVO (SDI Media)
    Аудио3: AC3, 6 ch, 640 Kbps - РусскийРусский, MVO (ICG, любительский)
    Аудио4: AC3, 6 ch, 448 Kbps - РусскийРусский, DVO (DeadSno&Den904, любительский)
    Аудио5: AC3, 6 ch, 640 Kbps - Индийский (Телугу)
    Субтитры: русские (full, forced), английские

    Как за несколько секунд удалить ненужные аудиодорожки и субтитры (Внимание! После удаления вы не сможете поддержать раздачу)


    Лог (x265 info)x265 [info]: frame I: 963, Avg QP:17.63 kb/s: 25133.32
    x265 [info]: frame P: 50404, Avg QP:19.36 kb/s: 14979.61
    x265 [info]: frame B: 178133, Avg QP:21.11 kb/s: 6368.92
    x265 [info]: Weighted P-Frames: Y:5.6% UV:4.5%
    x265 [info]: Weighted B-Frames: Y:7.0% UV:5.0%
    x265 [info]: encoded 229500 frames in 167127.20s (1.37 fps), 8338.78 kb/s, Avg QP:20.71
    МедиаинфоОбщее
    Уникальный идентификатор : 226219885973822640173316932519544309928 (0xAA305D8073EEAF5DFB57118531C948A8)
    Полное имя : \\.\Бахубали.Начало.Baahubali.The.Beginning.2015.BDRip-HEVC.1080p.mkv
    Формат : Matroska
    Версия формата : Version 4
    Размер файла : 11,6 Гбайт
    Продолжительность : 2 ч. 39 мин.
    Общий битрейт : 10,5 Мбит/сек
    Частота кадров : 24,000 кадра/сек
    Дата кодирования : 2024-06-28 13:03:29 UTC
    Программа кодирования : mkvmerge v85.0 ('Shame For You') 64-bit
    Библиотека кодирования : libebml v1.4.5 + libmatroska v1.7.1

    Видео
    Идентификатор : 1
    Формат : HEVC
    Формат/Информация : High Efficiency Video Coding
    Профиль формата : Main 10@L4.1@High
    Идентификатор кодека : V_MPEGH/ISO/HEVC
    Продолжительность : 2 ч. 39 мин.
    Битрейт : 8 340 Кбит/сек
    Ширина : 1 920 пикселей
    Высота : 826 пикселей
    Соотношение сторон дисплея : 2,35:1
    Режим частоты кадров : Постоянный
    Частота кадров : 24,000 кадра/сек
    Цветовое пространство : YUV
    Цветовая субдискретизация : 4:2:0
    Битовая глубина : 10 бит
    Бит/(Пиксели*Кадры) : 0.219
    Размер потока : 9,28 Гбайт (80%)
    Заголовок : Bãhubali: The Beginning / Rip by OldGamer
    Библиотека кодирования : x265 3.6+27-8787e8702:[Windows][GCC 13.3.0][64 bit] 10bit
    Параметры библиотеки кодирования : cpuid=1111039 / frame-threads=3 / numa-pools=8 / wpp / no-pmode / no-pme / no-psnr / no-ssim / log-level=2 / input-csp=1 / input-res=1920x826 / interlace=0 / total-frames=229500 / level-idc=41 / high-tier=1 / uhd-bd=0 / ref=5 / no-allow-non-conformance / no-repeat-headers / annexb / no-aud / no-eob / no-eos / no-hrd / info / hash=0 / temporal-layers=0 / open-gop / min-keyint=23 / keyint=240 / gop-lookahead=0 / bframes=16 / b-adapt=2 / b-pyramid / bframe-bias=0 / rc-lookahead=60 / lookahead-slices=0 / scenecut=40 / no-hist-scenecut / radl=0 / no-splice / no-intra-refresh / ctu=32 / min-cu-size=8 / rect / amp / max-tu-size=32 / tu-inter-depth=4 / tu-intra-depth=4 / limit-tu=1 / rdoq-level=2 / dynamic-rd=0.00 / no-ssim-rd / signhide / no-tskip / nr-intra=0 / nr-inter=0 / no-constrained-intra / no-strong-intra-smoothing / max-merge=5 / limit-refs=3 / no-limit-modes / me=3 / subme=7 / merange=57 / temporal-mvp / no-frame-dup / no-hme / weightp / weightb / no-analyze-src-pics / deblock=-2:-2 / no-sao / no-sao-non-deblock / rd=6 / selective-sao=0 / no-early-skip / no-rskip / no-fast-intra / no-tskip-fast / no-cu-lossless / b-intra / no-splitrd-skip / rdpenalty=0 / psy-rd=2.00 / psy-rdoq=1.00 / no-rd-refine / no-lossless / cbqpoffs=0 / crqpoffs=0 / rc=crf / crf=18.5 / qcomp=0.60 / qpstep=4 / stats-write=0 / stats-read=0 / vbv-maxrate=50000 / vbv-bufsize=50000 / vbv-init=0.9 / min-vbv-fullness=50.0 / max-vbv-fullness=80.0 / crf-max=0.0 / crf-min=0.0 / ipratio=1.40 / pbratio=1.30 / aq-mode=1 / aq-strength=1.00 / no-cutree / zone-count=1 / zones: / start-frame=224497 / end-frame=229499 / qp=36 / no-strict-cbr / qg-size=32 / no-rc-grain / qpmax=69 / qpmin=0 / no-const-vbv / sar=1 / overscan=0 / videoformat=5 / range=0 / colorprim=2 / transfer=2 / colormatrix=2 / chromaloc=0 / display-window=0 / cll=0,0 / min-luma=0 / max-luma=1023 / log2-max-poc-lsb=8 / vui-timing-info / vui-hrd-info / slices=1 / no-opt-qp-pps / no-opt-ref-list-length-pps / no-multi-pass-opt-rps / scenecut-bias=0.00 / no-opt-cu-delta-qp / no-aq-motion / no-hdr10 / no-hdr10-opt / no-dhdr10-opt / no-idr-recovery-sei / analysis-reuse-level=0 / analysis-save-reuse-level=0 / analysis-load-reuse-level=0 / scale-factor=0 / refine-intra=0 / refine-inter=0 / refine-mv=1 / refine-ctu-distortion=0 / no-limit-sao / ctu-info=0 / no-lowpass-dct / refine-analysis-type=0 / copy-pic=1 / max-ausize-factor=1.0 / no-dynamic-refine / no-single-sei / no-hevc-aq / no-svt / no-field / qp-adaptation-range=1.00 / scenecut-aware-qp=0conformance-window-offsets / right=0 / bottom=0 / decoder-max-rate=0 / no-vbv-live-multi-pass / no-mcstf / no-sbrc
    Язык : Телугу
    По умолчанию : Да
    Принудительно : Нет

    Аудио #1
    Идентификатор : 2
    Формат : AC-3
    Формат/Информация : Audio Coding 3
    Коммерческое название : Dolby Digital
    Идентификатор кодека : A_AC3
    Продолжительность : 2 ч. 39 мин.
    Вид битрейта : Постоянный
    Битрейт : 192 Кбит/сек
    Канал(-ы) : 2 канала
    Расположение каналов : L R
    Частота дискретизации : 48,0 КГц
    Частота кадров : 31,250 кадров/сек (1536 SPF)
    Метод сжатия : С потерями
    Размер потока : 219 Мбайт (2%)
    Заголовок : DUB (СТС)
    Язык : Русский
    Вид сервиса : Complete Main
    По умолчанию : Да
    Принудительно : Нет
    Нормализация звука речи : -27 dB
    compr : -0.28 dB
    mixlevel : 285 dB
    roomtyp : Small
    dialnorm_Average : -27 dB
    dialnorm_Minimum : -27 dB
    dialnorm_Maximum : -27 dB

    Аудио #2
    Идентификатор : 3
    Формат : AC-3
    Формат/Информация : Audio Coding 3
    Коммерческое название : Dolby Digital
    Идентификатор кодека : A_AC3
    Продолжительность : 2 ч. 39 мин.
    Вид битрейта : Постоянный
    Битрейт : 192 Кбит/сек
    Канал(-ы) : 2 канала
    Расположение каналов : L R
    Частота дискретизации : 48,0 КГц
    Частота кадров : 31,250 кадров/сек (1536 SPF)
    Метод сжатия : С потерями
    Размер потока : 219 Мбайт (2%)
    Заголовок : MVO (SDI Media)
    Язык : Русский
    Вид сервиса : Complete Main
    По умолчанию : Нет
    Принудительно : Нет
    Нормализация звука речи : -31 dB
    dialnorm_Average : -31 dB
    dialnorm_Minimum : -31 dB
    dialnorm_Maximum : -31 dB

    Аудио #3
    Идентификатор : 4
    Формат : AC-3
    Формат/Информация : Audio Coding 3
    Коммерческое название : Dolby Digital
    Идентификатор кодека : A_AC3
    Продолжительность : 2 ч. 39 мин.
    Вид битрейта : Постоянный
    Битрейт : 640 Кбит/сек
    Канал(-ы) : 6 каналов
    Расположение каналов : L R C LFE Ls Rs
    Частота дискретизации : 48,0 КГц
    Частота кадров : 31,250 кадров/сек (1536 SPF)
    Метод сжатия : С потерями
    Размер потока : 730 Мбайт (6%)
    Заголовок : MVO (ICG, любительский)
    Язык : Русский
    Вид сервиса : Complete Main
    По умолчанию : Нет
    Принудительно : Нет
    Нормализация звука речи : -27 dB
    compr : -0.28 dB
    cmixlev : -3.0 dB
    surmixlev : -3 dB
    mixlevel : 285 dB
    roomtyp : Small
    dialnorm_Average : -27 dB
    dialnorm_Minimum : -27 dB
    dialnorm_Maximum : -27 dB

    Аудио #4
    Идентификатор : 5
    Формат : AC-3
    Формат/Информация : Audio Coding 3
    Коммерческое название : Dolby Digital
    Идентификатор кодека : A_AC3
    Продолжительность : 2 ч. 39 мин.
    Вид битрейта : Постоянный
    Битрейт : 448 Кбит/сек
    Канал(-ы) : 6 каналов
    Расположение каналов : L R C LFE Ls Rs
    Частота дискретизации : 48,0 КГц
    Частота кадров : 31,250 кадров/сек (1536 SPF)
    Метод сжатия : С потерями
    Размер потока : 511 Мбайт (4%)
    Заголовок : DVO (DeadSno&Den904, любительский)
    Язык : Русский
    Вид сервиса : Complete Main
    По умолчанию : Нет
    Принудительно : Нет
    Нормализация звука речи : -27 dB
    compr : -0.28 dB
    dynrng : -0.86 dB
    cmixlev : -3.0 dB
    surmixlev : -3 dB
    mixlevel : 285 dB
    roomtyp : Small
    dialnorm_Average : -27 dB
    dialnorm_Minimum : -27 dB
    dialnorm_Maximum : -27 dB

    Аудио #5
    Идентификатор : 6
    Формат : AC-3
    Формат/Информация : Audio Coding 3
    Коммерческое название : Dolby Digital
    Идентификатор кодека : A_AC3
    Продолжительность : 2 ч. 39 мин.
    Вид битрейта : Постоянный
    Битрейт : 640 Кбит/сек
    Канал(-ы) : 6 каналов
    Расположение каналов : L R C LFE Ls Rs
    Частота дискретизации : 48,0 КГц
    Частота кадров : 31,250 кадров/сек (1536 SPF)
    Метод сжатия : С потерями
    Размер потока : 730 Мбайт (6%)
    Заголовок : Телугу (Оригинал)
    Язык : Телугу
    Вид сервиса : Complete Main
    По умолчанию : Нет
    Принудительно : Нет
    Нормализация звука речи : -27 dB
    compr : -0.28 dB
    cmixlev : -3.0 dB
    surmixlev : -3 dB
    mixlevel : 285 dB
    roomtyp : Small
    dialnorm_Average : -27 dB
    dialnorm_Minimum : -27 dB
    dialnorm_Maximum : -27 dB

    Текст #1
    Идентификатор : 7
    Формат : UTF-8
    Идентификатор кодека : S_TEXT/UTF8
    Идентификатор кодека/Информация : UTF-8 Plain Text
    Продолжительность : 2 ч. 20 мин.
    Битрейт : 10 бит/сек
    Частота кадров : 0,017 кадр/сек
    Число элементов : 142
    Размер потока : 10,8 КиБ (0%)
    Заголовок : На песни
    Язык : Русский
    По умолчанию : Да
    Принудительно : Нет

    Текст #2
    Идентификатор : 8
    Формат : UTF-8
    Идентификатор кодека : S_TEXT/UTF8
    Идентификатор кодека/Информация : UTF-8 Plain Text
    Продолжительность : 2 ч. 32 мин.
    Битрейт : 9 бит/сек
    Частота кадров : 0,017 кадр/сек
    Число элементов : 152
    Размер потока : 10,3 КиБ (0%)
    Заголовок : На песни - ICG
    Язык : Русский
    По умолчанию : Нет
    Принудительно : Нет

    Текст #3
    Идентификатор : 9
    Формат : UTF-8
    Идентификатор кодека : S_TEXT/UTF8
    Идентификатор кодека/Информация : UTF-8 Plain Text
    Продолжительность : 1 ч. 39 мин.
    Битрейт : 12 бит/сек
    Частота кадров : 0,023 кадр/сек
    Число элементов : 134
    Размер потока : 9,13 КиБ (0%)
    Заголовок : На песни - Honey&Haseena
    Язык : Русский
    По умолчанию : Нет
    Принудительно : Нет

    Текст #4
    Идентификатор : 10
    Формат : UTF-8
    Идентификатор кодека : S_TEXT/UTF8
    Идентификатор кодека/Информация : UTF-8 Plain Text
    Продолжительность : 2 ч. 33 мин.
    Битрейт : 47 бит/сек
    Частота кадров : 0,106 кадр/сек
    Число элементов : 977
    Размер потока : 53,1 КиБ (0%)
    Заголовок : Полные - ICG
    Язык : Русский
    По умолчанию : Нет
    Принудительно : Нет

    Текст #5
    Идентификатор : 11
    Формат : UTF-8
    Идентификатор кодека : S_TEXT/UTF8
    Идентификатор кодека/Информация : UTF-8 Plain Text
    Продолжительность : 2 ч. 33 мин.
    Битрейт : 55 бит/сек
    Частота кадров : 0,108 кадр/сек
    Число элементов : 994
    Размер потока : 62,9 КиБ (0%)
    Заголовок : Полные - KirDan
    Язык : Русский
    По умолчанию : Нет
    Принудительно : Нет

    Текст #6
    Идентификатор : 12
    Формат : UTF-8
    Идентификатор кодека : S_TEXT/UTF8
    Идентификатор кодека/Информация : UTF-8 Plain Text
    Продолжительность : 2 ч. 32 мин.
    Битрейт : 30 бит/сек
    Частота кадров : 0,108 кадр/сек
    Число элементов : 982
    Размер потока : 33,5 КиБ (0%)
    Язык : Английский
    По умолчанию : Нет
    Принудительно : Нет

    Меню
    00:00:00.000 : Глава 01
    00:04:45.750 : Глава 02
    00:10:28.042 : Глава 03
    00:15:24.875 : Глава 04
    00:18:42.166 : Глава 05
    00:20:40.333 : Глава 06
    00:26:51.125 : Глава 07
    00:33:06.833 : Глава 08
    00:41:03.583 : Глава 09
    01:02:02.417 : Глава 10
    01:05:31.250 : Глава 11
    01:11:45.542 : Глава 12
    01:21:27.625 : Глава 13
    01:37:14.000 : Глава 14
    01:44:07.208 : Глава 15
    01:48:28.083 : Глава 16
    01:51:42.208 : Глава 17
    01:57:32.208 : Глава 18
    02:19:32.667 : Глава 19
    02:29:12.583 : Глава 20
    Загрузка...Cкриншот1 Бахубали: Начало / Baahubali: The Beginning (2015) BDRip 1080p [HEVC] 10 bit от OldGamer (RG RIPS CLUB)Загрузка...Cкриншот2 Бахубали: Начало / Baahubali: The Beginning (2015) BDRip 1080p [HEVC] 10 bit от OldGamer (RG RIPS CLUB)Загрузка...Cкриншот3 Бахубали: Начало / Baahubali: The Beginning (2015) BDRip 1080p [HEVC] 10 bit от OldGamer (RG RIPS CLUB)Загрузка...Cкриншот4 Бахубали: Начало / Baahubali: The Beginning (2015) BDRip 1080p [HEVC] 10 bit от OldGamer (RG RIPS CLUB)
    Поблагодарили: 4A1eksandr1, AlexsBond, Kilop77, MIGRANT
    Файлы: 1
    • Бахубали.Начало.Baahubali.The.Beginning.2015.BDRip-HEVC.1080p.mkv

    Рейтинги КП и IMDB, кнопки "Раздайте, пожалуйста" и "Спасибо", а также мультитрекерная статистика доступны только зарегистрированным/авторизованным пользователям!

    OldGamer
    150101011.64 ГБ

    💬︎ Комментарии

    Добавление комментариев доступно только зарегистрированным/авторизованным пользователям.