💬 Мини-чат

GiggaloСообщение удалено (удалил: Giggalo)
StarLordOldGamer, как дела?)
StarLordOldGamer, ура, вернулся 😄
OldGamerRezident, можете скачать этот фильм от другого релизёра, там невелика разница, а раздающие точно есть
OldGamerGiggalo, https://tsya.ru/mnemonic.html
NoMaDСообщение удалено (удалил: NoMaD)
NoMaDСообщение удалено (удалил: NoMaD)
GiggaloСообщение удалено (удалил: Giggalo)
GiggaloСообщение удалено (удалил: Giggalo)
Spartanec1308Был днём
StarLordGiggalo, наверное отрубало беднягу, целый день его нету 😅
GiggaloСообщение удалено (удалил: Giggalo)
OldGamerДоброе. Работы много, некогда на перинах валяться.
GiggaloСообщение удалено (удалил: Giggalo)
GiggaloСообщение удалено (удалил: Giggalo)
  • Spartanec1308
  • StarLord
  • Blaster
  • Krem_OFF
  • litanglong
Отправка сообщений доступна только зарегистрированным/авторизованным пользователям.
Онлайн (за 10 мин.): 5

Убить Билла / Kill Bill: Vol. 1 (2003) BDRip 1080p [HEVC] 10 bit от chema1982

HEVC
10 bit
Обложка Убить Билла / Kill Bill: Vol. 1 (2003) BDRip 1080p [HEVC] 10 bit от chema1982 Год: 2003
Страна: США
Жанр: Боевик, Криминал, Триллер
Продолжительность: 01:50:43

Режиссер: Квентин Тарантино
В ролях: Ума Турман, Дэвид Кэррадайн, Дэрил Ханна, Майкл Мэдсен, Люси Лью, Вивика А. Фокс

Описание: В беременную наемную убийцу по кличке Черная Мамба во время бракосочетания стреляет человек по имени Билл. Пуля в голове жертвы, кровь на подвенечном платье, темнота… Но голова у Черной Мамбы оказалась крепкой. Пролежав четыре года в коме, Невеста приходит в себя. Она горит желанием найти тех, кто ее предал. Теперь только безжалостная месть успокоит сердце Черной Мамбы, и она начинает убивать поочередно всех членов банды Билла, оставляя главаря напоследок.


Видео: 1920x800, 7636 Kbps
Аудио1: DTS, 6 ch, 755 Kbps - РусскийРусский, Дублированный
Аудио2: DTS, 6 ch, 755 Kbps - АнглийскийАнглийский, Оригинал
Субтитры: Русские, Английские

Как за пару секунд удалить ненужные аудиодорожки и субтитры (Внимание! После удаления вы не сможете поддержать раздачу)

Медиаинфо
Общее
Уникальный идентификатор : 72088942136141370146406525989014231285 (0x363BD34266292F9916F41AD1567058F5)
Полное имя : D:\Раздачи\Новая папка\Kill Bill Vol.1(2003) BDRip 1080p[HEVC] 10bit.mkv
Формат : Matroska
Версия формата : Version 4
Размер файла : 7,08 Гбайт
Продолжительность : 1 ч. 50 м.
Общий поток : 9148 Кбит/сек
Название фильма : Kill Bill Vol.1(2003) BDRip 1080p[HEVC] 10bit
Дата кодирования : UTC 2018-10-30 10:54:45
Программа кодирования : mkvmerge v28.2.0 ('The Awakening') 64-bit
Библиотека кодирования : libebml v1.3.6 + libmatroska v1.4.9 / Lavf57.71.100
Обложка : Yes
Attachments : cover.jpg

Видео
Идентификатор : 1
Формат : HEVC
Формат/Информация : High Efficiency Video Coding
Профиль формата : Main 10@L4.1@High
Идентификатор кодека : V_MPEGH/ISO/HEVC
Продолжительность : 1 ч. 50 м.
Битрейт : 7636 Кбит/сек
Ширина : 1920 пикселей
Высота : 800 пикселей
Соотношение сторон : 2,40:1
Режим частоты кадров : Постоянный
Частота кадров : 23,976 (24000/1001) кадра/сек
Цветовое пространство : YUV
Субдискретизация насыщенности : 4:2:0
Битовая глубина : 10 бит
Бит/(Пиксели*Кадры) : 0.207
Размер потока : 5,91 Гбайт (83%)
Библиотека кодирования : x265 2.8+74-fd517ae68f93:[Windows][GCC 7.3.0][64 bit] 10bit
Настройки программы : cpuid=1049583 / frame-threads=5 / numa-pools=4 / wpp / no-pmode / no-pme / no-psnr / no-ssim / log-level=3 / input-csp=1 / input-res=1920x800 / interlace=0 / total-frames=0 / level-idc=41 / high-tier=1 / uhd-bd=0 / ref=5 / allow-non-conformance / no-repeat-headers / annexb / no-aud / no-hrd / info / hash=0 / no-temporal-layers / open-gop / min-keyint=24 / keyint=240 / gop-lookahead=0 / bframes=8 / b-adapt=2 / b-pyramid / bframe-bias=0 / rc-lookahead=60 / lookahead-slices=5 / scenecut=40 / radl=0 / no-intra-refresh / ctu=64 / min-cu-size=8 / rect / amp / max-tu-size=32 / tu-inter-depth=4 / tu-intra-depth=4 / limit-tu=1 / rdoq-level=0 / dynamic-rd=0.00 / no-ssim-rd / signhide / no-tskip / nr-intra=0 / nr-inter=0 / no-constrained-intra / no-strong-intra-smoothing / max-merge=5 / limit-refs=3 / no-limit-modes / me=3 / subme=7 / merange=57 / temporal-mvp / weightp / no-weightb / no-analyze-src-pics / deblock=-3:-3 / no-sao / no-sao-non-deblock / rd=3 / no-early-skip / rskip / no-fast-intra / no-tskip-fast / no-cu-lossless / no-b-intra / no-splitrd-skip / rdpenalty=0 / psy-rd=2.00 / psy-rdoq=0.00 / no-rd-refine / no-lossless / cbqpoffs=0 / crqpoffs=0 / rc=crf / crf=18.0 / qcomp=0.70 / qpstep=4 / stats-write=0 / stats-read=0 / vbv-maxrate=50000 / vbv-bufsize=50000 / vbv-init=0.9 / crf-max=0.0 / crf-min=0.0 / ipratio=1.40 / pbratio=1.30 / aq-mode=1 / aq-strength=0.80 / cutree / zone-count=0 / no-strict-cbr / qg-size=32 / no-rc-grain / qpmax=69 / qpmin=0 / no-const-vbv / sar=1 / overscan=0 / videoformat=5 / range=0 / colorprim=2 / transfer=2 / colormatrix=2 / chromaloc=0 / display-window=0 / max-cll=0,0 / min-luma=0 / max-luma=1023 / log2-max-poc-lsb=8 / vui-timing-info / vui-hrd-info / slices=1 / no-opt-qp-pps / no-opt-ref-list-length-pps / no-multi-pass-opt-rps / scenecut-bias=0.05 / no-opt-cu-delta-qp / no-aq-motion / no-hdr / no-hdr-opt / no-dhdr10-opt / no-idr-recovery-sei / analysis-reuse-level=5 / scale-factor=0 / refine-intra=0 / refine-inter=0 / refine-mv=0 / no-limit-sao / ctu-info=0 / no-lowpass-dct / refine-mv-type=0 / copy-pic=1 / max-ausize-factor=1.0 / no-dynamic-refine / no-single-sei
Default : Да
Forced : Нет

Аудио #1
Идентификатор : 2
Формат : DTS
Формат/Информация : Digital Theater Systems
Идентификатор кодека : A_DTS
Продолжительность : 1 ч. 50 м.
Вид битрейта : Постоянный
Битрейт : 755 Кбит/сек
Каналы : 6 каналов
Channel layout : C L R Ls Rs LFE
Частота : 48,0 КГц
Частота кадров : 93,750 кадра/сек (512 SPF)
Битовая глубина : 24 бит
Метод сжатия : С потерями
Размер потока : 598 Мбайт (8%)
Заголовок : Russian.DTS_5.1
Язык : Russian
Default : Да
Forced : Нет

Аудио #2
Идентификатор : 3
Формат : DTS
Формат/Информация : Digital Theater Systems
Идентификатор кодека : A_DTS
Продолжительность : 1 ч. 50 м.
Вид битрейта : Постоянный
Битрейт : 755 Кбит/сек
Каналы : 6 каналов
Channel layout : C L R Ls Rs LFE
Частота : 48,0 КГц
Частота кадров : 93,750 кадра/сек (512 SPF)
Битовая глубина : 24 бит
Метод сжатия : С потерями
Размер потока : 598 Мбайт (8%)
Заголовок : English.DTS_5.1
Язык : English
Default : Нет
Forced : Нет

Текст #1
Идентификатор : 4
Формат : UTF-8
Идентификатор кодека : S_TEXT/UTF8
Идентификатор кодека/Информация : UTF-8 Plain Text
Продолжительность : 1 ч. 42 м.
Битрейт : 47 бит/сек
ElementCount : 525
Размер потока : 35,6 Кбайт (0%)
Заголовок : Russian
Язык : Russian
Default : Нет
Forced : Нет

Текст #2
Идентификатор : 5
Формат : UTF-8
Идентификатор кодека : S_TEXT/UTF8
Идентификатор кодека/Информация : UTF-8 Plain Text
Продолжительность : 1 ч. 41 м.
Битрейт : 27 бит/сек
ElementCount : 709
Размер потока : 20,4 Кбайт (0%)
Заголовок : English
Язык : English
Default : Нет
Forced : Нет

Меню
00:00:00.000 : :Глава 1
00:02:27.853 : :Глава 2
00:05:08.141 : :Глава 3
00:09:50.211 : :Глава 4
00:16:08.591 : :Глава 5
00:19:52.021 : :Глава 6
00:25:12.134 : :Глава 7
00:32:19.059 : :Глава 8
00:35:57.655 : :Глава 9
00:45:02.407 : :Глава 10
00:50:30.860 : :Глава 11
00:58:39.724 : :Глава 12
01:04:35.121 : :Глава 13
01:13:12.220 : :Глава 14
01:21:39.435 : :Глава 15
01:30:05.733 : :Глава 16
01:38:37.077 : :Глава 17
01:41:46.100 : :Глава 18
01:43:19.399 : :Глава 19
01:50:42.636 : :Глава 20
Загрузка...Cкриншот1 Убить Билла / Kill Bill: Vol. 1 (2003) BDRip 1080p [HEVC] 10 bit от chema1982Загрузка...Cкриншот2 Убить Билла / Kill Bill: Vol. 1 (2003) BDRip 1080p [HEVC] 10 bit от chema1982Загрузка...Cкриншот3 Убить Билла / Kill Bill: Vol. 1 (2003) BDRip 1080p [HEVC] 10 bit от chema1982Загрузка...Cкриншот4 Убить Билла / Kill Bill: Vol. 1 (2003) BDRip 1080p [HEVC] 10 bit от chema1982
Сэмпл Торрент🧲 Магнет

Рейтинги КП и IMDB, кнопки "Позвать в чате" и "Спасибо", а также мультитрекерная статистика доступны только зарегистрированным/авторизованным пользователям!

Файлы: 1
  • Kill Bill Vol.1(2003) BDRip 1080p[HEVC] 10bit.mkv   7.08 ГБ
Поблагодарили: 4
brukvalub, Danlivy, dvism62, normallhuman
chema1982
1201007.08 ГБ

Добавление нового комментария

Добавление комментариев доступно только зарегистрированным/авторизованным пользователям.
Аватар не указан
  vash1  
Cпасибо за DTS 755! Разумное решение!