Чат

⚫︎
Список изменений сайта - https://rips.club/changelog.html (обновлен 24.05.2024)
    Онлайн (за 10 мин.): 0
    Отправка сообщений доступна только зарегистрированным/авторизованным пользователям.

    🎥︎Терминатор 2: Судный день / Terminator 2: Judgment Day (1991) [Theatrical Cut | Remastered] BDRip 1080p [HEVC] 10 bit от OldGamer (RG RIPS CLUB)


    Обложка Терминатор 2: Судный день / Terminator 2: Judgment Day (1991) [Theatrical Cut | Remastered] BDRip 1080p [HEVC] 10 bit от OldGamer (RG RIPS CLUB)
    HEVC
    10 bit
    ✂︎Сэмпл⤓︎Торрент🧲︎Магнет$Пожертвования

    При перезаливке на другие сайты просьба указать автора и релиз-группу.


    Год: 1991
    Страна: США
    Студия: Canal Plus, Carolco Pictures Inc., Lightstorm Entertainment, Pacific Western, T2 Productionsern, T2 Productions
    Жанр: Фантастика, Боевик, Триллер
    Длительность: 02:17:08

    Режиссер: Джеймс Кэмерон
    В ролях: Арнольд Шварценеггер, Линда Хэмилтон, Эдвард Ферлонг, Роберт Патрик, Эрл Боэн, Джо Мортон, С. Ипейта Меркерсон, Кастуло Герра, Дэнни Кукси, Дженетт Голдстин

    Описание: Прошло более десяти лет с тех пор, как киборг-терминатор из 2029 года пытался уничтожить Сару Коннор — женщину, чей будущий сын выиграет войну человечества против машин. Теперь у Сары родился сын Джон и время, когда он поведёт за собой выживших людей на борьбу с машинами, неумолимо приближается. Именно в этот момент из постапокалиптического будущего прибывает новый терминатор — практически неуязвимый и способный принимать любое обличье. Цель нового терминатора уже не Сара, а уничтожение молодого Джона Коннора. Однако шансы Джона на спасение существенно повышаются, когда на помощь приходит перепрограммированный сопротивлением терминатор предыдущего поколения. Оба киборга вступают в смертельный бой, от исхода которого зависит судьба человечества.


    Релиз-группа: RIPS CLUB
    Исходник: Blu-Ray Remux 1080p (rutor)
    Видео: 1920x800, 6165 Kbps
    Аудио1: AC3, 2 ch, 192 Kbps - РусскийРусский, DUB (ТВ3 / Zone Vision)
    Аудио2: AC3, 2 ch, 256 Kbps - РусскийРусский, DUB (Вольга)
    Аудио3: AC3, 6 ch, 640 Kbps - РусскийРусский, MVO (Киномания)
    Аудио4: AC3, 6 ch, 640 Kbps - РусскийРусский, MVO (Позитив Мультимедия)
    Аудио5: AC3, 6 ch, 640 Kbps - РусскийРусский, MVO (ОРТ / Селена Интернешнл)
    Аудио6: AC3, 6 ch, 640 Kbps - РусскийРусский, MVO (РТР / Россия 2)
    Аудио7: AC3, 6 ch, 448 Kbps - РусскийРусский, MVO (LDV)
    Аудио8: AC3, 6 ch, 448 Kbps - РусскийРусский, MVO (Twister)
    Аудио9: AC3, 6 ch, 640 Kbps - РусскийРусский, DVO (ТВ-6 Москва / Фортуна-фильм / Премьер)
    Аудио10: AC3, 2 ch, 192 Kbps - РусскийРусский, DVO (Лазер Видео / Гемини Фильм)
    Аудио11: AC3, 2 ch, 192 Kbps - РусскийРусский, DVO (НТВ / СТС)
    Аудио12: AC3, 2 ch, 192 Kbps - РусскийРусский, DVO (Останкино / Кинотеатральный (Аргус-СВ)
    Аудио13: AC3, 6 ch, 640 Kbps - РусскийРусский, AVO (Андрей Гаврилов ранний)
    Аудио14: AC3, 6 ch, 640 Kbps - РусскийРусский, AVO (Андрей Гаврилов поздний)
    Аудио15: AC3, 6 ch, 448 Kbps - РусскийРусский, AVO (Василий Горчаков поздний)
    Аудио16: AC3, 6 ch, 320 Kbps - РусскийРусский, AVO (Дмитрий Пучков)
    Аудио17: AC3, 2 ch, 192 Kbps - РусскийРусский, AVO (Владимир Яковлев / Борис Фёдоров)
    Аудио18: AC3, 2 ch, 192 Kbps - РусскийРусский, AVO (Василий Горчаков ранний)
    Аудио19: AC3, 2 ch, 192 Kbps - РусскийРусский, AVO (Вартан Дохалов)
    Аудио20: AC3, 2 ch, 192 Kbps - РусскийРусский, AVO (Виталий Мельников / "Дохаловоподобный" со вставками Вартана Дохалова)
    Аудио21: AC3, 2 ch, 192 Kbps - РусскийРусский, AVO (Сергей Кузнецов / "Сергей Лыткаринский")
    Аудио22: AC3, 2 ch, 192 Kbps - РусскийРусский, AVO (Юрий Живов)
    Аудио23: AC3, 6 ch, 640 Kbps - РусскийРусский, VO (Михаил Яроцкий)
    Аудио24: AC3, 6 ch, 448 Kbps - РусскийРусский, VO (Евгений Солодухин)
    Аудио25: AC3, 6 ch, 448 Kbps - РусскийРусский, VO (Держиморда)
    Аудио26: AC3, 2 ch, 192 Kbps - УкраинскийУкраинский, DUB (НЛО TV)
    Аудио27: AC3, 2 ch, 192 Kbps - УкраинскийУкраинский, DUB (AAA Sound)
    Аудио28: AC3, 6 ch, 640 Kbps - АнглийскийАнглийский
    Субтитры: русские (full, forced), украинские, английские

    Как за несколько секунд удалить ненужные аудиодорожки и субтитры (Внимание! После удаления вы не сможете поддержать раздачу)


    Лог (x265 info)x265 [info]: frame I: 838, Avg QP:17.19 kb/s: 14424.33
    x265 [info]: frame P: 46141, Avg QP:18.57 kb/s: 10632.57
    x265 [info]: frame B: 150295, Avg QP:21.00 kb/s: 4746.18
    x265 [info]: Weighted P-Frames: Y:7.9% UV:6.7%
    x265 [info]: Weighted B-Frames: Y:8.3% UV:6.1%
    x265 [info]: encoded 197274 frames in 117036.88s (1.69 fps), 6164.08 kb/s, Avg QP:20.42
    МедиаинфоОбщее
    Уникальный идентификатор : 85899367761449320419649250652299237658 (0x409F9DD029D1724DAD29127D4E28991A)
    Полное имя : \\.\Терминатор.2.Судный.день.Terminator.2.Judgment.Day.1991.Remastered.Theatrical.Cut.BDRip-HEVC.1080p.mkv
    Формат : Matroska
    Версия формата : Version 4
    Размер файла : 16,3 Гбайт
    Продолжительность : 2 ч. 17 мин.
    Общий битрейт : 17,0 Мбит/сек
    Частота кадров : 23,976 кадра/сек
    Название фильма : Терминатор 2: Судный день / Терминатор 2: Судный день
    Кодирование выполнил : OldGamer
    Тип содержимого : Movie
    Описание : То же железо, та же модель, новая миссия
    Дата выпуска : 1991-07-03
    Дата записи : 1991-07-03
    Программа кодирования : mkvmerge v83.0 ('Circle Of Friends') 64-bit
    Библиотека кодирования : libebml v1.4.5 + libmatroska v1.7.1 / xvid4psp5
    Обложка : Yes
    Attachments : cover.jpg
    ACTOR : Арнольд Шварценеггер, Линда Хэмилтон, Эдвард Ферлонг, Роберт Патрик, Джо Мортон, Эрл Боэн, С. Ипейта Меркерсон, Кастуло Герра, Дэнни Кукси, Дженетт Голдстин, Ксандер Беркли, Лесли Хэмилтон Геррен, Кен Гиббел, Роберт Уинли, Питер Шрум, Шэйн Уалдер, Ма...
    ARTIST : Арнольд Шварценеггер, Линда Хэмилтон, Эдвард Ферлонг, Роберт Патрик, Джо Мортон, Эрл Боэн, С. Ипейта Меркерсон, Кастуло Герра, Дэнни Кукси, Дженетт Голдстин, Ксандер Беркли, Лесли Хэмилтон Геррен, Кен Гиббел, Роберт Уинли, Питер Шрум, Шэйн Уалдер, Ма...
    DIRECTOR : Джеймс Кэмерон
    GENRE : боевик, триллер, фантастика
    LAW_RATING : R
    PRODUCER : Джеймс Кэмерон, Ван Линг
    PRODUCTION_STUDIO : TriStar Pictures
    RATING : R
    SUMMARY : То же железо, та же модель, новая миссия
    SYNOPSIS : Война роботов и людей продолжается. Казалось, что человечество обречено на полное уничтожение. Но благодаря своему лидеру Джону Коннору у сопротивления появляется шанс победить. Не имея возможности убить Джона в реальном времени, роботы отправляют в прошлое свою самую совершенную разработку — терминатора-убийцу из жидкого металла, способного принимать любое обличье.

    Видео
    Идентификатор : 1
    Формат : HEVC
    Формат/Информация : High Efficiency Video Coding
    Профиль формата : Main 10@L4.1@High
    Идентификатор кодека : V_MPEGH/ISO/HEVC
    Продолжительность : 2 ч. 17 мин.
    Битрейт : 6 165 Кбит/сек
    Ширина : 1 920 пикселей
    Высота : 800 пикселей
    Соотношение сторон дисплея : 2,40:1
    Режим частоты кадров : Постоянный
    Частота кадров : 23,976 (24000/1001) кадра/сек
    Цветовое пространство : YUV
    Цветовая субдискретизация : 4:2:0
    Битовая глубина : 10 бит
    Бит/(Пиксели*Кадры) : 0.167
    Размер потока : 5,91 Гбайт (36%)
    Заголовок : Terminator 2: Judgment Day / Rip by OldGamer
    Библиотека кодирования : x265 3.6+12-f3c5fbaff:[Windows][GCC 14.1.0][64 bit] 10bit
    Параметры библиотеки кодирования : cpuid=1111039 / frame-threads=4 / numa-pools=16 / wpp / no-pmode / no-pme / no-psnr / no-ssim / log-level=2 / input-csp=1 / input-res=1920x800 / interlace=0 / total-frames=197274 / level-idc=41 / high-tier=1 / uhd-bd=0 / ref=5 / no-allow-non-conformance / no-repeat-headers / annexb / no-aud / no-eob / no-eos / no-hrd / info / hash=0 / temporal-layers=0 / open-gop / min-keyint=23 / keyint=240 / gop-lookahead=0 / bframes=16 / b-adapt=2 / b-pyramid / bframe-bias=0 / rc-lookahead=40 / lookahead-slices=0 / scenecut=40 / no-hist-scenecut / radl=0 / no-splice / no-intra-refresh / ctu=32 / min-cu-size=8 / rect / amp / max-tu-size=32 / tu-inter-depth=4 / tu-intra-depth=4 / limit-tu=1 / rdoq-level=2 / dynamic-rd=0.00 / no-ssim-rd / signhide / no-tskip / nr-intra=0 / nr-inter=0 / no-constrained-intra / no-strong-intra-smoothing / max-merge=5 / limit-refs=3 / no-limit-modes / me=3 / subme=7 / merange=57 / temporal-mvp / no-frame-dup / no-hme / weightp / weightb / no-analyze-src-pics / deblock=-2:-2 / no-sao / no-sao-non-deblock / rd=6 / selective-sao=0 / no-early-skip / no-rskip / no-fast-intra / no-tskip-fast / no-cu-lossless / b-intra / no-splitrd-skip / rdpenalty=0 / psy-rd=2.00 / psy-rdoq=1.00 / no-rd-refine / no-lossless / cbqpoffs=0 / crqpoffs=0 / rc=crf / crf=20.6 / qcomp=0.75 / qpstep=4 / stats-write=0 / stats-read=0 / vbv-maxrate=50000 / vbv-bufsize=50000 / vbv-init=0.9 / min-vbv-fullness=50.0 / max-vbv-fullness=80.0 / crf-max=0.0 / crf-min=0.0 / ipratio=1.40 / pbratio=1.30 / aq-mode=1 / aq-strength=1.00 / no-cutree / zone-count=1 / zones: / start-frame=191336 / end-frame=197274 / qp=36 / no-strict-cbr / qg-size=32 / no-rc-grain / qpmax=69 / qpmin=0 / no-const-vbv / sar=1 / overscan=0 / videoformat=5 / range=0 / colorprim=2 / transfer=2 / colormatrix=2 / chromaloc=0 / display-window=0 / cll=0,0 / min-luma=0 / max-luma=1023 / log2-max-poc-lsb=8 / vui-timing-info / vui-hrd-info / slices=1 / no-opt-qp-pps / no-opt-ref-list-length-pps / no-multi-pass-opt-rps / scenecut-bias=0.00 / no-opt-cu-delta-qp / no-aq-motion / no-hdr10 / no-hdr10-opt / no-dhdr10-opt / no-idr-recovery-sei / analysis-reuse-level=0 / analysis-save-reuse-level=0 / analysis-load-reuse-level=0 / scale-factor=0 / refine-intra=0 / refine-inter=0 / refine-mv=1 / refine-ctu-distortion=0 / no-limit-sao / ctu-info=0 / no-lowpass-dct / refine-analysis-type=0 / copy-pic=1 / max-ausize-factor=1.0 / no-dynamic-refine / no-single-sei / no-hevc-aq / no-svt / no-field / qp-adaptation-range=1.00 / scenecut-aware-qp=0conformance-window-offsets / right=0 / bottom=0 / decoder-max-rate=0 / no-vbv-live-multi-pass / no-mcstf / no-sbrc
    Язык : Английский
    По умолчанию : Да
    Принудительно : Нет

    Аудио #1
    Идентификатор : 2
    Формат : AC-3
    Формат/Информация : Audio Coding 3
    Коммерческое название : Dolby Digital
    Идентификатор кодека : A_AC3
    Продолжительность : 2 ч. 17 мин.
    Вид битрейта : Постоянный
    Битрейт : 192 Кбит/сек
    Канал(-ы) : 2 канала
    Расположение каналов : L R
    Частота дискретизации : 48,0 КГц
    Частота кадров : 31,250 кадров/сек (1536 SPF)
    Метод сжатия : С потерями
    Размер потока : 188 Мбайт (1%)
    Заголовок : DUB (ТВ3 / Zone Vision)
    Язык : Русский
    Вид сервиса : Complete Main
    По умолчанию : Да
    Принудительно : Нет
    Нормализация звука речи : -31 dB
    dialnorm_Average : -31 dB
    dialnorm_Minimum : -31 dB
    dialnorm_Maximum : -31 dB

    Аудио #2
    Идентификатор : 3
    Формат : AC-3
    Формат/Информация : Audio Coding 3
    Коммерческое название : Dolby Digital
    Идентификатор кодека : A_AC3
    Продолжительность : 2 ч. 17 мин.
    Вид битрейта : Постоянный
    Битрейт : 256 Кбит/сек
    Канал(-ы) : 2 канала
    Расположение каналов : L R
    Частота дискретизации : 48,0 КГц
    Частота кадров : 31,250 кадров/сек (1536 SPF)
    Метод сжатия : С потерями
    Размер потока : 251 Мбайт (2%)
    Заголовок : DUB (Вольга)
    Язык : Русский
    Вид сервиса : Complete Main
    По умолчанию : Нет
    Принудительно : Нет
    Нормализация звука речи : -27 dB
    compr : -0.28 dB
    dialnorm_Average : -27 dB
    dialnorm_Minimum : -27 dB
    dialnorm_Maximum : -27 dB

    Аудио #3
    Идентификатор : 4
    Формат : AC-3
    Формат/Информация : Audio Coding 3
    Коммерческое название : Dolby Digital
    Идентификатор кодека : A_AC3
    Продолжительность : 2 ч. 17 мин.
    Вид битрейта : Постоянный
    Битрейт : 640 Кбит/сек
    Канал(-ы) : 6 каналов
    Расположение каналов : L R C LFE Ls Rs
    Частота дискретизации : 48,0 КГц
    Частота кадров : 31,250 кадров/сек (1536 SPF)
    Метод сжатия : С потерями
    Размер потока : 628 Мбайт (4%)
    Заголовок : MVO (Киномания)
    Язык : Русский
    Вид сервиса : Complete Main
    По умолчанию : Нет
    Принудительно : Нет
    Нормализация звука речи : -27 dB
    compr : -0.28 dB
    cmixlev : -3.0 dB
    surmixlev : -3 dB
    mixlevel : 285 dB
    roomtyp : Small
    dialnorm_Average : -27 dB
    dialnorm_Minimum : -27 dB
    dialnorm_Maximum : -27 dB

    Аудио #4
    Идентификатор : 5
    Формат : AC-3
    Формат/Информация : Audio Coding 3
    Коммерческое название : Dolby Digital
    Идентификатор кодека : A_AC3
    Продолжительность : 2 ч. 17 мин.
    Вид битрейта : Постоянный
    Битрейт : 640 Кбит/сек
    Канал(-ы) : 6 каналов
    Расположение каналов : L R C LFE Ls Rs
    Частота дискретизации : 48,0 КГц
    Частота кадров : 31,250 кадров/сек (1536 SPF)
    Метод сжатия : С потерями
    Размер потока : 628 Мбайт (4%)
    Заголовок : MVO (Позитив Мультимедия)
    Язык : Русский
    Вид сервиса : Complete Main
    По умолчанию : Нет
    Принудительно : Нет
    Нормализация звука речи : -27 dB
    compr : -0.28 dB
    cmixlev : -3.0 dB
    surmixlev : -3 dB
    mixlevel : 285 dB
    roomtyp : Small
    dialnorm_Average : -27 dB
    dialnorm_Minimum : -27 dB
    dialnorm_Maximum : -27 dB

    Аудио #5
    Идентификатор : 6
    Формат : AC-3
    Формат/Информация : Audio Coding 3
    Коммерческое название : Dolby Digital
    Идентификатор кодека : A_AC3
    Продолжительность : 2 ч. 17 мин.
    Вид битрейта : Постоянный
    Битрейт : 640 Кбит/сек
    Канал(-ы) : 6 каналов
    Расположение каналов : L R C LFE Ls Rs
    Частота дискретизации : 48,0 КГц
    Частота кадров : 31,250 кадров/сек (1536 SPF)
    Метод сжатия : С потерями
    Размер потока : 628 Мбайт (4%)
    Заголовок : MVO (ОРТ / Селена Интернешнл)
    Язык : Русский
    Вид сервиса : Complete Main
    По умолчанию : Нет
    Принудительно : Нет
    Нормализация звука речи : -27 dB
    compr : -0.28 dB
    cmixlev : -3.0 dB
    surmixlev : -3 dB
    mixlevel : 285 dB
    roomtyp : Small
    dialnorm_Average : -27 dB
    dialnorm_Minimum : -27 dB
    dialnorm_Maximum : -27 dB

    Аудио #6
    Идентификатор : 7
    Формат : AC-3
    Формат/Информация : Audio Coding 3
    Коммерческое название : Dolby Digital
    Идентификатор кодека : A_AC3
    Продолжительность : 2 ч. 17 мин.
    Вид битрейта : Постоянный
    Битрейт : 640 Кбит/сек
    Канал(-ы) : 6 каналов
    Расположение каналов : L R C LFE Ls Rs
    Частота дискретизации : 48,0 КГц
    Частота кадров : 31,250 кадров/сек (1536 SPF)
    Метод сжатия : С потерями
    Размер потока : 628 Мбайт (4%)
    Заголовок : MVO (РТР / Россия 2)
    Язык : Русский
    Вид сервиса : Complete Main
    По умолчанию : Нет
    Принудительно : Нет
    Нормализация звука речи : -27 dB
    compr : -0.28 dB
    cmixlev : -3.0 dB
    surmixlev : -3 dB
    mixlevel : 285 dB
    roomtyp : Small
    dialnorm_Average : -27 dB
    dialnorm_Minimum : -27 dB
    dialnorm_Maximum : -27 dB

    Аудио #7
    Идентификатор : 8
    Формат : AC-3
    Формат/Информация : Audio Coding 3
    Коммерческое название : Dolby Digital
    Идентификатор кодека : A_AC3
    Продолжительность : 2 ч. 17 мин.
    Вид битрейта : Постоянный
    Битрейт : 448 Кбит/сек
    Канал(-ы) : 6 каналов
    Расположение каналов : L R C LFE Ls Rs
    Частота дискретизации : 48,0 КГц
    Частота кадров : 31,250 кадров/сек (1536 SPF)
    Метод сжатия : С потерями
    Размер потока : 439 Мбайт (3%)
    Заголовок : MVO (LDV)
    Язык : Русский
    Вид сервиса : Complete Main
    По умолчанию : Нет
    Принудительно : Нет
    Нормализация звука речи : -27 dB
    compr : 6.02 dB
    cmixlev : -3.0 dB
    surmixlev : -3 dB
    mixlevel : 283 dB
    roomtyp : Small
    dialnorm_Average : -27 dB
    dialnorm_Minimum : -27 dB
    dialnorm_Maximum : -27 dB

    Аудио #8
    Идентификатор : 9
    Формат : AC-3
    Формат/Информация : Audio Coding 3
    Коммерческое название : Dolby Digital
    Идентификатор кодека : A_AC3
    Продолжительность : 2 ч. 17 мин.
    Вид битрейта : Постоянный
    Битрейт : 448 Кбит/сек
    Канал(-ы) : 6 каналов
    Расположение каналов : L R C LFE Ls Rs
    Частота дискретизации : 48,0 КГц
    Частота кадров : 31,250 кадров/сек (1536 SPF)
    Метод сжатия : С потерями
    Размер потока : 439 Мбайт (3%)
    Заголовок : MVO (Twister)
    Язык : Русский
    Вид сервиса : Complete Main
    По умолчанию : Нет
    Принудительно : Нет
    Нормализация звука речи : -27 dB
    compr : 6.02 dB
    cmixlev : -3.0 dB
    surmixlev : -3 dB
    mixlevel : 283 dB
    roomtyp : Small
    dialnorm_Average : -27 dB
    dialnorm_Minimum : -27 dB
    dialnorm_Maximum : -27 dB

    Аудио #9
    Идентификатор : 10
    Формат : AC-3
    Формат/Информация : Audio Coding 3
    Коммерческое название : Dolby Digital
    Идентификатор кодека : A_AC3
    Продолжительность : 2 ч. 17 мин.
    Вид битрейта : Постоянный
    Битрейт : 640 Кбит/сек
    Канал(-ы) : 6 каналов
    Расположение каналов : L R C LFE Ls Rs
    Частота дискретизации : 48,0 КГц
    Частота кадров : 31,250 кадров/сек (1536 SPF)
    Метод сжатия : С потерями
    Размер потока : 628 Мбайт (4%)
    Заголовок : DVO (ТВ-6 Москва / Фортуна-фильм / Премьер)
    Язык : Русский
    Вид сервиса : Complete Main
    По умолчанию : Нет
    Принудительно : Нет
    Нормализация звука речи : -27 dB
    compr : -0.28 dB
    cmixlev : -3.0 dB
    surmixlev : -3 dB
    mixlevel : 285 dB
    roomtyp : Small
    dialnorm_Average : -27 dB
    dialnorm_Minimum : -27 dB
    dialnorm_Maximum : -27 dB

    Аудио #10
    Идентификатор : 11
    Формат : AC-3
    Формат/Информация : Audio Coding 3
    Коммерческое название : Dolby Digital
    Идентификатор кодека : A_AC3
    Продолжительность : 2 ч. 17 мин.
    Вид битрейта : Постоянный
    Битрейт : 192 Кбит/сек
    Канал(-ы) : 2 канала
    Расположение каналов : L R
    Частота дискретизации : 48,0 КГц
    Частота кадров : 31,250 кадров/сек (1536 SPF)
    Метод сжатия : С потерями
    Размер потока : 188 Мбайт (1%)
    Заголовок : DVO (Лазер Видео / Гемини Фильм)
    Язык : Русский
    Вид сервиса : Complete Main
    По умолчанию : Нет
    Принудительно : Нет
    Нормализация звука речи : -27 dB
    compr : 9.90 dB
    dynrng : 5.16 dB
    dialnorm_Average : -27 dB
    dialnorm_Minimum : -27 dB
    dialnorm_Maximum : -27 dB

    Аудио #11
    Идентификатор : 12
    Формат : AC-3
    Формат/Информация : Audio Coding 3
    Коммерческое название : Dolby Digital
    Настройки формата : Dolby Surround
    Идентификатор кодека : A_AC3
    Продолжительность : 2 ч. 17 мин.
    Вид битрейта : Постоянный
    Битрейт : 192 Кбит/сек
    Канал(-ы) : 2 канала
    Расположение каналов : L R
    Частота дискретизации : 48,0 КГц
    Частота кадров : 31,250 кадров/сек (1536 SPF)
    Метод сжатия : С потерями
    Размер потока : 188 Мбайт (1%)
    Заголовок : DVO (НТВ / СТС)
    Язык : Русский
    Вид сервиса : Complete Main
    По умолчанию : Нет
    Принудительно : Нет
    Нормализация звука речи : -27 dB
    compr : 9.90 dB
    dynrng : 15.19 dB
    dsurmod : Dolby Surround encoded
    mixlevel : 283 dB
    roomtyp : Small
    dialnorm_Average : -27 dB
    dialnorm_Minimum : -27 dB
    dialnorm_Maximum : -27 dB

    Аудио #12
    Идентификатор : 13
    Формат : AC-3
    Формат/Информация : Audio Coding 3
    Коммерческое название : Dolby Digital
    Настройки формата : Dolby Surround
    Идентификатор кодека : A_AC3
    Продолжительность : 2 ч. 17 мин.
    Вид битрейта : Постоянный
    Битрейт : 192 Кбит/сек
    Канал(-ы) : 2 канала
    Расположение каналов : L R
    Частота дискретизации : 48,0 КГц
    Частота кадров : 31,250 кадров/сек (1536 SPF)
    Метод сжатия : С потерями
    Размер потока : 188 Мбайт (1%)
    Заголовок : DVO (Останкино / Кинотеатральный (Аргус-СВ)
    Язык : Русский
    Вид сервиса : Complete Main
    По умолчанию : Нет
    Принудительно : Нет
    Нормализация звука речи : -27 dB
    compr : 9.90 dB
    dynrng : -2.87 dB
    dsurmod : Dolby Surround encoded
    mixlevel : 283 dB
    roomtyp : Small
    dialnorm_Average : -27 dB
    dialnorm_Minimum : -27 dB
    dialnorm_Maximum : -27 dB

    Аудио #13
    Идентификатор : 14
    Формат : AC-3
    Формат/Информация : Audio Coding 3
    Коммерческое название : Dolby Digital
    Идентификатор кодека : A_AC3
    Продолжительность : 2 ч. 17 мин.
    Вид битрейта : Постоянный
    Битрейт : 640 Кбит/сек
    Канал(-ы) : 6 каналов
    Расположение каналов : L R C LFE Ls Rs
    Частота дискретизации : 48,0 КГц
    Частота кадров : 31,250 кадров/сек (1536 SPF)
    Метод сжатия : С потерями
    Размер потока : 628 Мбайт (4%)
    Заголовок : AVO (Андрей Гаврилов ранний)
    Язык : Русский
    Вид сервиса : Complete Main
    По умолчанию : Нет
    Принудительно : Нет
    Нормализация звука речи : -27 dB
    compr : -0.28 dB
    dynrng : 9.90 dB
    cmixlev : -3.0 dB
    surmixlev : -3 dB
    mixlevel : 285 dB
    roomtyp : Small
    dialnorm_Average : -27 dB
    dialnorm_Minimum : -27 dB
    dialnorm_Maximum : -27 dB

    Аудио #14
    Идентификатор : 15
    Формат : AC-3
    Формат/Информация : Audio Coding 3
    Коммерческое название : Dolby Digital
    Идентификатор кодека : A_AC3
    Продолжительность : 2 ч. 17 мин.
    Вид битрейта : Постоянный
    Битрейт : 640 Кбит/сек
    Канал(-ы) : 6 каналов
    Расположение каналов : L R C LFE Ls Rs
    Частота дискретизации : 48,0 КГц
    Частота кадров : 31,250 кадров/сек (1536 SPF)
    Метод сжатия : С потерями
    Размер потока : 628 Мбайт (4%)
    Заголовок : AVO (Андрей Гаврилов поздний)
    Язык : Русский
    Вид сервиса : Complete Main
    По умолчанию : Нет
    Принудительно : Нет
    Нормализация звука речи : -27 dB
    compr : -0.28 dB
    cmixlev : -3.0 dB
    surmixlev : -3 dB
    mixlevel : 285 dB
    roomtyp : Small
    dialnorm_Average : -27 dB
    dialnorm_Minimum : -27 dB
    dialnorm_Maximum : -27 dB

    Аудио #15
    Идентификатор : 16
    Формат : AC-3
    Формат/Информация : Audio Coding 3
    Коммерческое название : Dolby Digital
    Идентификатор кодека : A_AC3
    Продолжительность : 2 ч. 17 мин.
    Вид битрейта : Постоянный
    Битрейт : 448 Кбит/сек
    Канал(-ы) : 6 каналов
    Расположение каналов : L R C LFE Ls Rs
    Частота дискретизации : 48,0 КГц
    Частота кадров : 31,250 кадров/сек (1536 SPF)
    Метод сжатия : С потерями
    Размер потока : 439 Мбайт (3%)
    Заголовок : AVO (Василий Горчаков поздний)
    Язык : Русский
    Вид сервиса : Complete Main
    По умолчанию : Нет
    Принудительно : Нет
    Нормализация звука речи : -27 dB
    compr : -0.28 dB
    dynrng : -0.86 dB
    cmixlev : -3.0 dB
    surmixlev : -3 dB
    mixlevel : 285 dB
    roomtyp : Small
    dialnorm_Average : -27 dB
    dialnorm_Minimum : -27 dB
    dialnorm_Maximum : -27 dB

    Аудио #16
    Идентификатор : 17
    Формат : AC-3
    Формат/Информация : Audio Coding 3
    Коммерческое название : Dolby Digital
    Идентификатор кодека : A_AC3
    Продолжительность : 2 ч. 17 мин.
    Вид битрейта : Постоянный
    Битрейт : 320 Кбит/сек
    Канал(-ы) : 6 каналов
    Расположение каналов : L R C LFE Ls Rs
    Частота дискретизации : 48,0 КГц
    Частота кадров : 31,250 кадров/сек (1536 SPF)
    Метод сжатия : С потерями
    Размер потока : 314 Мбайт (2%)
    Заголовок : AVO (Дмитрий Пучков)
    Язык : Русский
    Вид сервиса : Complete Main
    По умолчанию : Нет
    Принудительно : Нет
    Нормализация звука речи : -27 dB
    compr : -0.28 dB
    dynrng : -1.80 dB
    cmixlev : -3.0 dB
    surmixlev : -3 dB
    mixlevel : 285 dB
    roomtyp : Small
    dialnorm_Average : -27 dB
    dialnorm_Minimum : -27 dB
    dialnorm_Maximum : -27 dB

    Аудио #17
    Идентификатор : 18
    Формат : AC-3
    Формат/Информация : Audio Coding 3
    Коммерческое название : Dolby Digital
    Идентификатор кодека : A_AC3
    Продолжительность : 2 ч. 17 мин.
    Вид битрейта : Постоянный
    Битрейт : 192 Кбит/сек
    Канал(-ы) : 2 канала
    Расположение каналов : L R
    Частота дискретизации : 48,0 КГц
    Частота кадров : 31,250 кадров/сек (1536 SPF)
    Метод сжатия : С потерями
    Размер потока : 188 Мбайт (1%)
    Заголовок : AVO (Владимир Яковлев / Борис Фёдоров)
    Язык : Русский
    Вид сервиса : Complete Main
    По умолчанию : Нет
    Принудительно : Нет
    Нормализация звука речи : -27 dB
    compr : -0.28 dB
    dialnorm_Average : -27 dB
    dialnorm_Minimum : -27 dB
    dialnorm_Maximum : -27 dB

    Аудио #18
    Идентификатор : 19
    Формат : AC-3
    Формат/Информация : Audio Coding 3
    Коммерческое название : Dolby Digital
    Идентификатор кодека : A_AC3
    Продолжительность : 2 ч. 17 мин.
    Вид битрейта : Постоянный
    Битрейт : 192 Кбит/сек
    Канал(-ы) : 2 канала
    Расположение каналов : L R
    Частота дискретизации : 48,0 КГц
    Частота кадров : 31,250 кадров/сек (1536 SPF)
    Метод сжатия : С потерями
    Размер потока : 189 Мбайт (1%)
    Заголовок : AVO (Василий Горчаков ранний)
    Язык : Русский
    Вид сервиса : Complete Main
    По умолчанию : Нет
    Принудительно : Нет
    Нормализация звука речи : -31 dB
    dialnorm_Average : -31 dB
    dialnorm_Minimum : -31 dB
    dialnorm_Maximum : -31 dB

    Аудио #19
    Идентификатор : 20
    Формат : AC-3
    Формат/Информация : Audio Coding 3
    Коммерческое название : Dolby Digital
    Идентификатор кодека : A_AC3
    Продолжительность : 2 ч. 17 мин.
    Вид битрейта : Постоянный
    Битрейт : 192 Кбит/сек
    Канал(-ы) : 2 канала
    Расположение каналов : L R
    Частота дискретизации : 48,0 КГц
    Частота кадров : 31,250 кадров/сек (1536 SPF)
    Метод сжатия : С потерями
    Размер потока : 188 Мбайт (1%)
    Заголовок : AVO (Вартан Дохалов)
    Язык : Русский
    Вид сервиса : Complete Main
    По умолчанию : Нет
    Принудительно : Нет
    Нормализация звука речи : -27 dB
    compr : -0.28 dB
    dialnorm_Average : -27 dB
    dialnorm_Minimum : -27 dB
    dialnorm_Maximum : -27 dB

    Аудио #20
    Идентификатор : 21
    Формат : AC-3
    Формат/Информация : Audio Coding 3
    Коммерческое название : Dolby Digital
    Идентификатор кодека : A_AC3
    Продолжительность : 2 ч. 17 мин.
    Вид битрейта : Постоянный
    Битрейт : 192 Кбит/сек
    Канал(-ы) : 2 канала
    Расположение каналов : L R
    Частота дискретизации : 48,0 КГц
    Частота кадров : 31,250 кадров/сек (1536 SPF)
    Метод сжатия : С потерями
    Размер потока : 188 Мбайт (1%)
    Заголовок : AVO (Виталий Мельников / "Дохаловоподобный" со вставками Вартана Дохалова)
    Язык : Русский
    Вид сервиса : Complete Main
    По умолчанию : Нет
    Принудительно : Нет
    Нормализация звука речи : -31 dB
    dialnorm_Average : -27 dB
    dialnorm_Minimum : -31 dB
    dialnorm_Maximum : -27 dB

    Аудио #21
    Идентификатор : 22
    Формат : AC-3
    Формат/Информация : Audio Coding 3
    Коммерческое название : Dolby Digital
    Идентификатор кодека : A_AC3
    Продолжительность : 2 ч. 17 мин.
    Вид битрейта : Постоянный
    Битрейт : 192 Кбит/сек
    Канал(-ы) : 2 канала
    Расположение каналов : L R
    Частота дискретизации : 48,0 КГц
    Частота кадров : 31,250 кадров/сек (1536 SPF)
    Метод сжатия : С потерями
    Размер потока : 188 Мбайт (1%)
    Заголовок : AVO (Сергей Кузнецов / "Сергей Лыткаринский")
    Язык : Русский
    Вид сервиса : Complete Main
    По умолчанию : Нет
    Принудительно : Нет
    Нормализация звука речи : -27 dB
    compr : -0.28 dB
    dialnorm_Average : -27 dB
    dialnorm_Minimum : -27 dB
    dialnorm_Maximum : -27 dB

    Аудио #22
    Идентификатор : 23
    Формат : AC-3
    Формат/Информация : Audio Coding 3
    Коммерческое название : Dolby Digital
    Идентификатор кодека : A_AC3
    Продолжительность : 2 ч. 17 мин.
    Вид битрейта : Постоянный
    Битрейт : 192 Кбит/сек
    Канал(-ы) : 2 канала
    Расположение каналов : L R
    Частота дискретизации : 48,0 КГц
    Частота кадров : 31,250 кадров/сек (1536 SPF)
    Метод сжатия : С потерями
    Размер потока : 188 Мбайт (1%)
    Заголовок : AVO (Юрий Живов)
    Язык : Русский
    Вид сервиса : Complete Main
    По умолчанию : Нет
    Принудительно : Нет
    Нормализация звука речи : -31 dB
    dialnorm_Average : -31 dB
    dialnorm_Minimum : -31 dB
    dialnorm_Maximum : -31 dB

    Аудио #23
    Идентификатор : 24
    Формат : AC-3
    Формат/Информация : Audio Coding 3
    Коммерческое название : Dolby Digital
    Идентификатор кодека : A_AC3
    Продолжительность : 2 ч. 17 мин.
    Вид битрейта : Постоянный
    Битрейт : 640 Кбит/сек
    Канал(-ы) : 6 каналов
    Расположение каналов : L R C LFE Ls Rs
    Частота дискретизации : 48,0 КГц
    Частота кадров : 31,250 кадров/сек (1536 SPF)
    Метод сжатия : С потерями
    Размер потока : 628 Мбайт (4%)
    Заголовок : VO (Михаил Яроцкий)
    Язык : Русский
    Вид сервиса : Complete Main
    По умолчанию : Нет
    Принудительно : Нет
    Нормализация звука речи : -27 dB
    compr : -0.28 dB
    cmixlev : -3.0 dB
    surmixlev : -3 dB
    dialnorm_Average : -27 dB
    dialnorm_Minimum : -27 dB
    dialnorm_Maximum : -27 dB

    Аудио #24
    Идентификатор : 25
    Формат : AC-3
    Формат/Информация : Audio Coding 3
    Коммерческое название : Dolby Digital
    Идентификатор кодека : A_AC3
    Продолжительность : 2 ч. 17 мин.
    Вид битрейта : Постоянный
    Битрейт : 448 Кбит/сек
    Канал(-ы) : 6 каналов
    Расположение каналов : L R C LFE Ls Rs
    Частота дискретизации : 48,0 КГц
    Частота кадров : 31,250 кадров/сек (1536 SPF)
    Метод сжатия : С потерями
    Размер потока : 439 Мбайт (3%)
    Заголовок : VO (Евгений Солодухин)
    Язык : Русский
    Вид сервиса : Complete Main
    По умолчанию : Нет
    Принудительно : Нет
    Нормализация звука речи : -27 dB
    compr : -0.28 dB
    cmixlev : -3.0 dB
    surmixlev : -3 dB
    dialnorm_Average : -27 dB
    dialnorm_Minimum : -27 dB
    dialnorm_Maximum : -27 dB

    Аудио #25
    Идентификатор : 26
    Формат : AC-3
    Формат/Информация : Audio Coding 3
    Коммерческое название : Dolby Digital
    Идентификатор кодека : A_AC3
    Продолжительность : 2 ч. 17 мин.
    Вид битрейта : Постоянный
    Битрейт : 448 Кбит/сек
    Канал(-ы) : 6 каналов
    Расположение каналов : L R C LFE Ls Rs
    Частота дискретизации : 48,0 КГц
    Частота кадров : 31,250 кадров/сек (1536 SPF)
    Метод сжатия : С потерями
    Размер потока : 439 Мбайт (3%)
    Заголовок : VO (Держиморда)
    Язык : Русский
    Вид сервиса : Complete Main
    По умолчанию : Нет
    Принудительно : Нет
    Нормализация звука речи : -27 dB
    compr : 15.19 dB
    dynrng : 1.72 dB
    cmixlev : -3.0 dB
    surmixlev : -3 dB
    mixlevel : 283 dB
    roomtyp : Small
    dialnorm_Average : -27 dB
    dialnorm_Minimum : -27 dB
    dialnorm_Maximum : -27 dB

    Аудио #26
    Идентификатор : 27
    Формат : AC-3
    Формат/Информация : Audio Coding 3
    Коммерческое название : Dolby Digital
    Идентификатор кодека : A_AC3
    Продолжительность : 2 ч. 17 мин.
    Вид битрейта : Постоянный
    Битрейт : 192 Кбит/сек
    Канал(-ы) : 2 канала
    Расположение каналов : L R
    Частота дискретизации : 48,0 КГц
    Частота кадров : 31,250 кадров/сек (1536 SPF)
    Метод сжатия : С потерями
    Размер потока : 189 Мбайт (1%)
    Заголовок : DUB (НЛО TV)
    Язык : Украинский
    Вид сервиса : Complete Main
    По умолчанию : Нет
    Принудительно : Нет
    Нормализация звука речи : -31 dB
    dialnorm_Average : -27 dB
    dialnorm_Minimum : -31 dB
    dialnorm_Maximum : -27 dB

    Аудио #27
    Идентификатор : 28
    Формат : AC-3
    Формат/Информация : Audio Coding 3
    Коммерческое название : Dolby Digital
    Идентификатор кодека : A_AC3
    Продолжительность : 2 ч. 17 мин.
    Вид битрейта : Постоянный
    Битрейт : 192 Кбит/сек
    Канал(-ы) : 2 канала
    Расположение каналов : L R
    Частота дискретизации : 48,0 КГц
    Частота кадров : 31,250 кадров/сек (1536 SPF)
    Метод сжатия : С потерями
    Размер потока : 189 Мбайт (1%)
    Заголовок : DUB (AAA Sound)
    Язык : Украинский
    Вид сервиса : Complete Main
    По умолчанию : Нет
    Принудительно : Нет
    Нормализация звука речи : -31 dB
    dialnorm_Average : -27 dB
    dialnorm_Minimum : -31 dB
    dialnorm_Maximum : -27 dB

    Аудио #28
    Идентификатор : 29
    Формат : AC-3
    Формат/Информация : Audio Coding 3
    Коммерческое название : Dolby Digital
    Идентификатор кодека : A_AC3
    Продолжительность : 2 ч. 17 мин.
    Вид битрейта : Постоянный
    Битрейт : 640 Кбит/сек
    Канал(-ы) : 6 каналов
    Расположение каналов : L R C LFE Ls Rs
    Частота дискретизации : 48,0 КГц
    Частота кадров : 31,250 кадров/сек (1536 SPF)
    Метод сжатия : С потерями
    Размер потока : 628 Мбайт (4%)
    Язык : Английский
    Вид сервиса : Complete Main
    По умолчанию : Нет
    Принудительно : Нет
    Нормализация звука речи : -27 dB
    compr : -0.28 dB
    cmixlev : -3.0 dB
    surmixlev : -3 dB
    mixlevel : 285 dB
    roomtyp : Small
    dialnorm_Average : -27 dB
    dialnorm_Minimum : -27 dB
    dialnorm_Maximum : -27 dB

    Текст #1
    Идентификатор : 30
    Формат : UTF-8
    Идентификатор кодека : S_TEXT/UTF8
    Идентификатор кодека/Информация : UTF-8 Plain Text
    Продолжительность : 1 ч. 7 мин.
    Битрейт : 1 бит/сек
    Частота кадров : 0,003 кадр/сек
    Число элементов : 12
    Размер потока : 724 байта (0%)
    Заголовок : Forced Вольга
    Язык : Русский
    По умолчанию : Нет
    Принудительно : Нет

    Текст #2
    Идентификатор : 31
    Формат : UTF-8
    Идентификатор кодека : S_TEXT/UTF8
    Идентификатор кодека/Информация : UTF-8 Plain Text
    Продолжительность : 2 ч. 11 мин.
    Битрейт : 45 бит/сек
    Частота кадров : 0,106 кадр/сек
    Число элементов : 838
    Размер потока : 43,9 КиБ (0%)
    Заголовок : Full Twister
    Язык : Русский
    По умолчанию : Нет
    Принудительно : Нет

    Текст #3
    Идентификатор : 32
    Формат : UTF-8
    Идентификатор кодека : S_TEXT/UTF8
    Идентификатор кодека/Информация : UTF-8 Plain Text
    Продолжительность : 2 ч. 11 мин.
    Битрейт : 47 бит/сек
    Частота кадров : 0,121 кадр/сек
    Число элементов : 951
    Размер потока : 46,2 КиБ (0%)
    Заголовок : Full
    Язык : Русский
    По умолчанию : Нет
    Принудительно : Нет

    Текст #4
    Идентификатор : 33
    Формат : UTF-8
    Идентификатор кодека : S_TEXT/UTF8
    Идентификатор кодека/Информация : UTF-8 Plain Text
    Продолжительность : 2 ч. 12 мин.
    Битрейт : 48 бит/сек
    Частота кадров : 0,138 кадр/сек
    Число элементов : 1092
    Размер потока : 47,4 КиБ (0%)
    Заголовок : Full vbereza
    Язык : Украинский
    По умолчанию : Нет
    Принудительно : Нет

    Текст #5
    Идентификатор : 34
    Формат : UTF-8
    Идентификатор кодека : S_TEXT/UTF8
    Идентификатор кодека/Информация : UTF-8 Plain Text
    Продолжительность : 2 ч. 14 мин.
    Битрейт : 30 бит/сек
    Частота кадров : 0,120 кадр/сек
    Число элементов : 968
    Размер потока : 30,2 КиБ (0%)
    Заголовок : Full
    Язык : Английский
    По умолчанию : Нет
    Принудительно : Нет

    Меню
    00:00:00.000 : en:Prologue
    00:00:52.093 : en:Future War
    00:03:38.301 : en:Main Titles
    00:05:36.836 : en:Termination Arrives
    00:06:48.408 : en:Biker Bar
    00:09:11.217 : en:Bad To The Bone
    00:10:33.549 : en:T-1000 Arrives
    00:12:31.500 : en:Meet John Connor
    00:13:38.609 : en:Sarah Connor
    00:15:31.722 : en:T-1000 Visits The Voights
    00:16:41.125 : en:Easy Money
    00:18:08.045 : en:Sanity Review
    00:21:35.293 : en:Cyberdyne Systems
    00:23:08.804 : en:Model Systems
    00:24:32.012 : en:Target Acquired
    00:25:25.482 : en:The Galleria
    00:27:01.870 : en:Zeroed In The Corridor
    00:29:38.401 : en:Into The Streets
    00:30:49.055 : en:Canal Chase
    00:34:29.150 : en:Time Out
    00:36:51.917 : en:Never This Nice
    00:39:34.663 : en:Photos
    00:40:50.030 : en:Mission Parameters
    00:44:36.590 : en:Pescadero State Hospital
    00:47:48.073 : en:Lewis The Guard
    00:49:32.636 : en:Sarah Breaks Out
    00:51:10.192 : en:215 Bones
    00:51:53.652 : en:I Swear
    00:53:02.637 : en:At Syringe-Point
    00:55:12.559 : en:"Come With Me If You Want To Live"
    00:56:40.021 : en:Escape From Pescadero
    01:01:13.252 : en:Security Car
    01:02:48.514 : en:Nice Bike
    01:03:29.430 : en:Night Repairs
    01:04:58.686 : en:Heading South
    01:05:37.141 : en:No Problemo
    01:06:36.909 : en:Detailed Files
    01:08:59.218 : en:Salceda's Camp
    01:11:28.784 : en:Weapons Cache
    01:12:45.402 : en:Fathers And Sons
    01:17:05.662 : en:Nuclear Nightmare
    01:19:22.632 : en:Sarah's Decision
    01:19:52.912 : en:No Fate
    01:21:19.374 : en:Sarah's Solution
    01:26:58.337 : en:Changing The Way It Goes
    01:29:47.381 : en:Target: Cyberdyne
    01:31:48.878 : en:All The Way
    01:33:48.998 : en:T-1000 At Dyson's
    01:34:28.662 : en:Police Arrivals
    01:35:23.425 : en:Company
    01:36:34.913 : en:Terminator Serves Notice
    01:38:24.106 : en:In The Vault
    01:38:56.638 : en:S.W.A.T. Offensive
    01:41:17.779 : en:Death Of Dyson And Cyberdyne
    01:42:48.787 : en:"I'll Be Back"
    01:44:29.221 : en:Borrowing The S.W.A.T. Van
    01:45:41.835 : en:T-1000 Acquires A Helicopter
    01:46:40.393 : en:Freeway Chase
    01:49:19.386 : en:Tanker Chase
    01:53:24.172 : en:Fire And Ice
    01:56:56.133 : en:Sticking Together
    01:57:32.795 : en:Hand To Hand
    01:58:42.531 : en:Deeper Into The Steel Mill
    01:59:17.650 : en:Sarah's Stand
    02:01:14.099 : en:Terminator Skewered
    02:03:13.928 : en:Sarah And John
    02:03:46.543 : en:Alternate Power
    02:04:22.371 : en:Two Sarahs
    02:05:49.666 : en:Terminated
    02:08:02.883 : en:One More Chip
    02:11:53.864 : en:The Unknown Future
    02:12:36.531 : en:End Titles
    Загрузка...Cкриншот1 Терминатор 2: Судный день / Terminator 2: Judgment Day (1991) [Theatrical Cut | Remastered] BDRip 1080p [HEVC] 10 bit от OldGamer (RG RIPS CLUB)Загрузка...Cкриншот2 Терминатор 2: Судный день / Terminator 2: Judgment Day (1991) [Theatrical Cut | Remastered] BDRip 1080p [HEVC] 10 bit от OldGamer (RG RIPS CLUB)Загрузка...Cкриншот3 Терминатор 2: Судный день / Terminator 2: Judgment Day (1991) [Theatrical Cut | Remastered] BDRip 1080p [HEVC] 10 bit от OldGamer (RG RIPS CLUB)Загрузка...Cкриншот4 Терминатор 2: Судный день / Terminator 2: Judgment Day (1991) [Theatrical Cut | Remastered] BDRip 1080p [HEVC] 10 bit от OldGamer (RG RIPS CLUB)
    История обновленийПерекодировано. Добавлены 22 перевода, русские и украинские субтитры.
    Поблагодарили: 13A1eksandr1, alexyak, and50, anderb, Antilord90, Brooklyn, InSpector, Kiran, sharkey71, solohin1006, stickstoff, vserginbox, Winsent
    Файлы: 1
    • Терминатор.2.Судный.день.Terminator.2.Judgment.Day.1991.Remastered.Theatrical.Cut.BDRip-HEVC.1080p.mkv

    Рейтинги КП и IMDB, кнопки "Раздайте, пожалуйста" и "Спасибо", а также мультитрекерная статистика доступны только зарегистрированным/авторизованным пользователям!

    OldGamer
    122208016.34 ГБ

    💬︎ Комментарии

    Добавление комментариев доступно только зарегистрированным/авторизованным пользователям.