💬 Мини-чат

OldGamerну и акустические излучатели собрать хорошие, типа Penaudio Legato Signature или похожие, тут надо тщательно собирать систему для прослушивания
OldGamerне помешает ещё посетить отоларинголога для промывки слухового аппарата от серных пробок специализированным сертифицированным раствором, это (промывка) имеет немаловажное значение
OldGamer😆🤐🤐
OldGamerи всё же лучше hi-end, с подключением кабелями типа Analysis-Plus Oval 9 из бескислородной меди и с их предварительным прогревом системой типа Nordost Vidar, иначе всё теряет смысл
XuMuKManson_Fan, не надо hi-end акустики, достаточно hi-fi. "Кристольность" на высоких частотах другая, в DTS кажется более "живым" звук. Но самая большая разница, когда сравниваешь АС3 с каким-нибудь DTS-HD MA
IRITРаздайте, пожалуйста, Байки из склепа: Демон ночи / Tales from the Crypt: Demon Knight (1995) BDRip 1080p [HEVC] 10 bit от druidblack
OldGamerManson_Fan, у меня нет hi-end акустики, поэтому не слушал, не знаю, может и есть разница. За других говорить не буду. В любом случае, продвинутым слухачам будет несложно найти, скачать и прикрепить дорожки требуемого им качества.
mafo2Manson_Fan, не все телевизоры поддерживают DTS. например, мой через встроенный плеер его не воспроизводит. можно конечно смотреть через ПК, но порой хочется и через ТВ.
Manson_FanOldGamer, "Скажите зачем релизёры звук DTS 768 kbps переделывают в AC3 640 kbps" Интересно, а разницу в качестве в фильмах кому то удавалось услышать?😕 мне вот нет
Manson_Fanникто еще не сравнивал HEVC и новый AV1?
IRITРаздайте, пожалуйста, Маньяк-полицейский 3: Знак молчания / Maniac Cop 3: Badge of Silence (1993) BDRip 1080p [HEVC] 10 bit от HANNIBAL
Spartanec1308С Днём Великой Победы!
BrooklynВсех с праздником! С Днем Великой Победы! Ура-Ура-Урааааааа
BrooklynADVOKAT69, Спасибо большое!
ADVOKAT69Операция «Ы» и другие приключения Шурика (1965) раздаю
mafo2С Днем Победы!
joker63Поздравляю всех с Днем Победы!
ADVOKAT69Admin, Спасибо деду за победу!Тебе за поздравление!
AdminADVOKAT69, Дедам спасибо.
ADVOKAT69Admin, спасибо большое!✋
  • StarLord
  • alexyak
Отправка сообщений доступна только зарегистрированным/авторизованным пользователям.
Онлайн (за 10 мин.): 2

Джуманджи / Jumanji (1995) BDRip 1080p [HEVC] 10 bit от M@kSIMus

HEVC
10 bit
Обложка Джуманджи / Jumanji (1995) BDRip 1080p [HEVC] 10 bit от M@kSIMus Год: 1995
Страна: США
Студия: TriStar Pictures, Interscope Communications, Teitler Film
Жанр: Фэнтези, Приключения, Семейный
Продолжительность: 01:44:06

Режиссер: Джо Джонстон
В ролях: Робин Уильямс, Бонни Хант, Кирстен Данст, Брэдли Пирс, Биби Ньювирт, Джонатан Хайд, Дэвид Алан Грир, Патриша Кларксон, Адам Хэнн-Берд, Лаура Белл Банди

Описание: Случайно обнаружив настольную игру со странным названием «Джуманджи» Алан Пэрриш, не зная о ее сверхъестественных свойствах, на глазах изумленной подружки переносится в джунгли. Долгие годы он находится в потустороннем мире, до тех пор, пока двое ни о чем не подозревающих подростков не находят игру и не снимают волшебные чары, освобождая Алана из многолетнего плена. Теперь им предстоит решить нелегкую задачу — победить могущественную силу игры, пройти немыслимые препятствия и одержать победу над силами Магии!


Видео: 1920x1038, ~12,6 Mbps
Аудио1: AC3, 6 ch, 448 Kbps - РусскийРусский, Дублированный (Киномания)
Аудио2: AC3, 6 ch, 448 Kbps - РусскийРусский, Профессиональный многоголосый (Superbit)
Аудио3: AC3, 2 ch, 192 Kbps - РусскийРусский, Профессиональный многоголосый (Видеосервис, DVD)
Аудио4: AC3, 2 ch, 192 Kbps - РусскийРусский, Профессиональный многоголосый (Первый канал)
Аудио5: AC3, 2 ch, 192 Kbps - РусскийРусский, Профессиональный многоголосый (НТВ)
Аудио6: AC3, 2 ch, 192 Kbps - РусскийРусский, Профессиональный многоголосый (СТС)
Аудио7: AC3, 2 ch, 192 Kbps - РусскийРусский, Профессиональный многоголосый (РТР)
Аудио8: AC3, 6 ch, 448 Kbps - РусскийРусский, Авторский (Гаврилов, поздний)
Аудио9: AC3, 6 ch, 448 Kbps - РусскийРусский, Авторский (Живов)
Аудио10: AC3, 2 ch, 192 Kbps - РусскийРусский, Авторский (Визгунов)
Аудио11: AC3, 2 ch, 192 Kbps - УкраинскийУкраинский, Профессиональный многоголосый (Интер)
Аудио12: AC3, 6 ch, 448 Kbps - АнглийскийАнглийский, Оригинал
Субтитры: Русские (полные), английские (полные)

Как за пару секунд удалить ненужные аудиодорожки и субтитры (Внимание! После удаления вы не сможете поддержать раздачу)

Медиаинфо
Общее
Уникальный идентификатор : 239156594518234871497344168952997991554 (0xB3EBE27A427994E136DF7ADA5FADD482)
Полное имя : Джуманджи (1995) BDRip 1080p [HEVC] 10 bit.mkv
Формат : Matroska
Версия формата : Version 4
Размер файла : 11,7 Гбайт
Продолжительность : 1 ч. 44 м.
Общий поток : 16,1 Мбит/сек
Название фильма : Джуманджи (1995) Encoded_by_M@kSIMus
Дата кодирования : UTC 2019-04-10 10:18:31
Программа кодирования : mkvmerge v28.0.0 ('Voice In My Head') 64-bit
Библиотека кодирования : libebml v1.3.6 + libmatroska v1.4.9
Обложка : Yes
Attachments : cover.jpg

Видео
Идентификатор : 1
Формат : HEVC
Формат/Информация : High Efficiency Video Coding
Профиль формата : Main 10@L4.1@High
Идентификатор кодека : V_MPEGH/ISO/HEVC
Продолжительность : 1 ч. 44 м.
Битрейт : 12,6 Мбит/сек
Ширина : 1920 пикселей
Высота : 1038 пикселей
Соотношение сторон : 1,85:1
Режим частоты кадров : Постоянный
Частота кадров : 23,976 (24000/1001) кадра/сек
Цветовое пространство : YUV
Субдискретизация насыщенности : 4:2:0
Битовая глубина : 10 бит
Бит/(Пиксели*Кадры) : 0.263
Размер потока : 9,13 Гбайт (78%)
Заголовок : Джуманджи (1995) Encoded_by_M@kSIMus
Библиотека кодирования : x265 2.9+9-f74003e88622:[Windows][GCC 8.2.0][64 bit] 10bit
Настройки программы : cpuid=1049583 / frame-threads=5 / numa-pools=4 / wpp / no-pmode / no-pme / no-psnr / no-ssim / log-level=3 / input-csp=1 / input-res=1920x1038 / interlace=0 / total-frames=0 / level-idc=41 / high-tier=1 / uhd-bd=0 / ref=4 / allow-non-conformance / no-repeat-headers / annexb / no-aud / no-hrd / info / hash=0 / no-temporal-layers / open-gop / min-keyint=24 / keyint=240 / gop-lookahead=0 / bframes=12 / b-adapt=2 / b-pyramid / bframe-bias=0 / rc-lookahead=40 / lookahead-slices=6 / scenecut=40 / radl=0 / no-intra-refresh / ctu=32 / min-cu-size=8 / rect / no-amp / max-tu-size=32 / tu-inter-depth=4 / tu-intra-depth=4 / limit-tu=1 / rdoq-level=1 / dynamic-rd=0.00 / no-ssim-rd / signhide / no-tskip / nr-intra=0 / nr-inter=0 / no-constrained-intra / no-strong-intra-smoothing / max-merge=4 / limit-refs=3 / no-limit-modes / me=3 / subme=7 / merange=57 / temporal-mvp / weightp / weightb / no-analyze-src-pics / deblock=-3:-3 / no-sao / no-sao-non-deblock / rd=4 / no-early-skip / no-rskip / no-fast-intra / no-tskip-fast / no-cu-lossless / no-b-intra / no-splitrd-skip / rdpenalty=0 / psy-rd=2.00 / psy-rdoq=1.00 / no-rd-refine / no-lossless / cbqpoffs=0 / crqpoffs=0 / rc=crf / crf=21.0 / qcomp=0.60 / qpstep=4 / stats-write=0 / stats-read=0 / vbv-maxrate=50000 / vbv-bufsize=50000 / vbv-init=0.9 / crf-max=0.0 / crf-min=0.0 / ipratio=1.40 / pbratio=1.30 / aq-mode=3 / aq-strength=1.00 / no-cutree / zone-count=0 / no-strict-cbr / qg-size=32 / no-rc-grain / qpmax=69 / qpmin=0 / no-const-vbv / sar=1 / overscan=0 / videoformat=5 / range=0 / colorprim=1 / transfer=1 / colormatrix=1 / chromaloc=0 / display-window=0 / max-cll=0,0 / min-luma=0 / max-luma=1023 / log2-max-poc-lsb=8 / vui-timing-info / vui-hrd-info / slices=1 / no-opt-qp-pps / no-opt-ref-list-length-pps / no-multi-pass-opt-rps / scenecut-bias=0.05 / no-opt-cu-delta-qp / no-aq-motion / no-hdr / no-hdr-opt / no-dhdr10-opt / no-idr-recovery-sei / analysis-reuse-level=5 / scale-factor=0 / refine-intra=0 / refine-inter=0 / refine-mv=0 / no-limit-sao / ctu-info=0 / no-lowpass-dct / refine-mv-type=0 / copy-pic=1 / max-ausize-factor=1.0 / no-dynamic-refine / no-single-sei
Default : Да
Forced : Нет
Цветовой диапазон : Limited
Основные цвета : BT.709
Характеристики трансфера : BT.709
Коэффициенты матрицы : BT.709

Аудио #1
Идентификатор : 2
Формат : AC-3
Формат/Информация : Audio Coding 3
Коммерческое название : Dolby Digital
Идентификатор кодека : A_AC3
Продолжительность : 1 ч. 44 м.
Вид битрейта : Постоянный
Битрейт : 448 Кбит/сек
Каналы : 6 каналов
Channel layout : L R C LFE Ls Rs
Частота : 48,0 КГц
Частота кадров : 31,250 кадров/сек (1536 SPF)
Битовая глубина : 16 бит
Метод сжатия : С потерями
Размер потока : 334 Мбайт (3%)
Заголовок : Дубляж (Киномания)
Язык : Russian
Default : Да
Forced : Нет

Аудио #2
Идентификатор : 3
Формат : AC-3
Формат/Информация : Audio Coding 3
Коммерческое название : Dolby Digital
Идентификатор кодека : A_AC3
Продолжительность : 1 ч. 44 м.
Вид битрейта : Постоянный
Битрейт : 448 Кбит/сек
Каналы : 6 каналов
Channel layout : L R C LFE Ls Rs
Частота : 48,0 КГц
Частота кадров : 31,250 кадров/сек (1536 SPF)
Битовая глубина : 16 бит
Метод сжатия : С потерями
Размер потока : 334 Мбайт (3%)
Заголовок : MVO (Superbit)
Язык : Russian
Default : Нет
Forced : Нет

Аудио #3
Идентификатор : 4
Формат : AC-3
Формат/Информация : Audio Coding 3
Коммерческое название : Dolby Digital
Идентификатор кодека : A_AC3
Продолжительность : 1 ч. 44 м.
Вид битрейта : Постоянный
Битрейт : 192 Кбит/сек
Каналы : 2 канала
Channel layout : L R
Частота : 48,0 КГц
Частота кадров : 31,250 кадров/сек (1536 SPF)
Битовая глубина : 16 бит
Метод сжатия : С потерями
Размер потока : 143 Мбайт (1%)
Заголовок : MVO (Видеосервис DVD)
Язык : Russian
Default : Нет
Forced : Нет

Аудио #4
Идентификатор : 5
Формат : AC-3
Формат/Информация : Audio Coding 3
Коммерческое название : Dolby Digital
Идентификатор кодека : A_AC3
Продолжительность : 1 ч. 44 м.
Вид битрейта : Постоянный
Битрейт : 192 Кбит/сек
Каналы : 2 канала
Channel layout : L R
Частота : 48,0 КГц
Частота кадров : 31,250 кадров/сек (1536 SPF)
Битовая глубина : 16 бит
Метод сжатия : С потерями
Размер потока : 143 Мбайт (1%)
Заголовок : MVO (Первый канал)
Язык : Russian
Default : Нет
Forced : Нет

Аудио #5
Идентификатор : 6
Формат : AC-3
Формат/Информация : Audio Coding 3
Коммерческое название : Dolby Digital
Идентификатор кодека : A_AC3
Продолжительность : 1 ч. 44 м.
Вид битрейта : Постоянный
Битрейт : 192 Кбит/сек
Каналы : 2 канала
Channel layout : L R
Частота : 48,0 КГц
Частота кадров : 31,250 кадров/сек (1536 SPF)
Битовая глубина : 16 бит
Метод сжатия : С потерями
Размер потока : 143 Мбайт (1%)
Заголовок : MVO (НТВ)
Язык : Russian
Default : Нет
Forced : Нет

Аудио #6
Идентификатор : 7
Формат : AC-3
Формат/Информация : Audio Coding 3
Коммерческое название : Dolby Digital
Идентификатор кодека : A_AC3
Продолжительность : 1 ч. 44 м.
Вид битрейта : Постоянный
Битрейт : 192 Кбит/сек
Каналы : 2 канала
Channel layout : L R
Частота : 48,0 КГц
Частота кадров : 31,250 кадров/сек (1536 SPF)
Битовая глубина : 16 бит
Метод сжатия : С потерями
Размер потока : 143 Мбайт (1%)
Заголовок : MVO (СТС)
Язык : Russian
Default : Нет
Forced : Нет

Аудио #7
Идентификатор : 8
Формат : AC-3
Формат/Информация : Audio Coding 3
Коммерческое название : Dolby Digital
Идентификатор кодека : A_AC3
Продолжительность : 1 ч. 44 м.
Вид битрейта : Постоянный
Битрейт : 192 Кбит/сек
Каналы : 2 канала
Channel layout : L R
Частота : 48,0 КГц
Частота кадров : 31,250 кадров/сек (1536 SPF)
Битовая глубина : 16 бит
Метод сжатия : С потерями
Размер потока : 143 Мбайт (1%)
Заголовок : MVO (РТР)
Язык : Russian
Default : Нет
Forced : Нет

Аудио #8
Идентификатор : 9
Формат : AC-3
Формат/Информация : Audio Coding 3
Коммерческое название : Dolby Digital
Идентификатор кодека : A_AC3
Продолжительность : 1 ч. 44 м.
Вид битрейта : Постоянный
Битрейт : 448 Кбит/сек
Каналы : 6 каналов
Channel layout : L R C LFE Ls Rs
Частота : 48,0 КГц
Частота кадров : 31,250 кадров/сек (1536 SPF)
Битовая глубина : 16 бит
Метод сжатия : С потерями
Размер потока : 334 Мбайт (3%)
Заголовок : AVO (А. Гаврилов) (поздний)
Язык : Russian
Default : Нет
Forced : Нет

Аудио #9
Идентификатор : 10
Формат : AC-3
Формат/Информация : Audio Coding 3
Коммерческое название : Dolby Digital
Идентификатор кодека : A_AC3
Продолжительность : 1 ч. 44 м.
Вид битрейта : Постоянный
Битрейт : 448 Кбит/сек
Каналы : 6 каналов
Channel layout : L R C LFE Ls Rs
Частота : 48,0 КГц
Частота кадров : 31,250 кадров/сек (1536 SPF)
Битовая глубина : 16 бит
Метод сжатия : С потерями
Размер потока : 334 Мбайт (3%)
Заголовок : AVO (Ю. Живов)
Язык : Russian
Default : Нет
Forced : Нет

Аудио #10
Идентификатор : 11
Формат : AC-3
Формат/Информация : Audio Coding 3
Коммерческое название : Dolby Digital
Идентификатор кодека : A_AC3
Продолжительность : 1 ч. 44 м.
Вид битрейта : Постоянный
Битрейт : 192 Кбит/сек
Каналы : 2 канала
Channel layout : L R
Частота : 48,0 КГц
Частота кадров : 31,250 кадров/сек (1536 SPF)
Битовая глубина : 16 бит
Метод сжатия : С потерями
Размер потока : 143 Мбайт (1%)
Заголовок : AVO (С. Визгунов)
Язык : Russian
Default : Нет
Forced : Нет

Аудио #11
Идентификатор : 12
Формат : AC-3
Формат/Информация : Audio Coding 3
Коммерческое название : Dolby Digital
Идентификатор кодека : A_AC3
Продолжительность : 1 ч. 44 м.
Вид битрейта : Постоянный
Битрейт : 192 Кбит/сек
Каналы : 2 канала
Channel layout : L R
Частота : 48,0 КГц
Частота кадров : 31,250 кадров/сек (1536 SPF)
Битовая глубина : 16 бит
Метод сжатия : С потерями
Размер потока : 143 Мбайт (1%)
Заголовок : MVO (Интер)
Язык : Ukrainian
Default : Нет
Forced : Нет

Аудио #12
Идентификатор : 13
Формат : AC-3
Формат/Информация : Audio Coding 3
Коммерческое название : Dolby Digital
Идентификатор кодека : A_AC3
Продолжительность : 1 ч. 44 м.
Вид битрейта : Постоянный
Битрейт : 448 Кбит/сек
Каналы : 6 каналов
Channel layout : L R C LFE Ls Rs
Частота : 48,0 КГц
Частота кадров : 31,250 кадров/сек (1536 SPF)
Битовая глубина : 16 бит
Метод сжатия : С потерями
Размер потока : 334 Мбайт (3%)
Заголовок : Оригинал
Язык : English
Default : Нет
Forced : Нет

Текст #1
Идентификатор : 14
Формат : UTF-8
Идентификатор кодека : S_TEXT/UTF8
Идентификатор кодека/Информация : UTF-8 Plain Text
Продолжительность : 1 ч. 37 м.
Битрейт : 48 бит/сек
ElementCount : 638
Размер потока : 34,5 Кбайт (0%)
Заголовок : Rus Full
Язык : Russian
Default : Нет
Forced : Нет

Текст #2
Идентификатор : 15
Формат : UTF-8
Идентификатор кодека : S_TEXT/UTF8
Идентификатор кодека/Информация : UTF-8 Plain Text
Продолжительность : 1 ч. 37 м.
Битрейт : 41 бит/сек
ElementCount : 975
Размер потока : 29,9 Кбайт (0%)
Заголовок : Eng Full
Язык : English
Default : Нет
Forced : Нет

Меню
00:00:00.000 : en:Madam Serena
00:08:17.205 : en:"I'm Back!"
00:15:17.541 : en:Drumbeats
00:20:29.019 : en:Bats in the Attic
00:28:11.189 : en:In the Jungle
00:33:07.110 : en:A Really Weird Game
00:41:06.755 : en:Digging Out the Past
00:45:01.323 : en:Start
00:48:23.358 : en:It Isn't Thunder
00:55:13.018 : en:Van Pelt
01:00:24.787 : en:Much Faster Than Bamboo
01:08:21.138 : en:His Fangs Are Sharp
01:16:12.609 : en:Monkeys
01:23:27.585 : en:A Tiny Bite
01:28:55.955 : en:Peter Cheats
01:34:51.268 : en:Panic
Загрузка...Cкриншот1 Джуманджи / Jumanji (1995) BDRip 1080p [HEVC] 10 bit от M@kSIMusЗагрузка...Cкриншот2 Джуманджи / Jumanji (1995) BDRip 1080p [HEVC] 10 bit от M@kSIMusЗагрузка...Cкриншот3 Джуманджи / Jumanji (1995) BDRip 1080p [HEVC] 10 bit от M@kSIMusЗагрузка...Cкриншот4 Джуманджи / Jumanji (1995) BDRip 1080p [HEVC] 10 bit от M@kSIMus
Сэмпл Торрент🧲 Магнет

Раздача обновлена!
Фильм перекодирован с некоторым улучшением качества. Добавлены звуковые дорожки.

Рейтинги КП и IMDB, кнопки "Позвать в чате" и "Спасибо", а также мультитрекерная статистика доступны только зарегистрированным/авторизованным пользователям!

Файлы: 1
  • Джуманджи (1995) BDRip 1080p [HEVC] 10 bit.mkv   11.74 ГБ
Поблагодарили: 22
375509, 7654321, A1eksandr1, cnn, donadar, duke1966, FijiMAX, gurvinok, han-nik, ivs5, kapitan, Kilop77, mvclub, nach, NoMaD, Nuclear70, SaN161NeK, STATCHEM, XXXxx, Zulbay, серженто, Сухум
Admin
1518111011.74 ГБ

Добавление нового комментария

Добавление комментариев доступно только зарегистрированным/авторизованным пользователям.
Аватар не указан
  torrentzulu  
MakSIMus писал(а):
XviD4PSP 8.0.50 я не считаю это недоразумение за программу.
Есть новый качественный перевод Вячеслава Котова http://perevodman.com/avo/kotov/43552/. Добавьте, пожалуйста!
Аватар Студень
  Студень  
Plushko писал(а):
Я о том, что если выставить в разных программах одинаковые ключи x265, то в теории результат должен быть одинаковый.
Должен, но не будет
Аватар не указан
  Plushko  
Студень писал(а):
Чаво сказал? какие параметры нужные? от чего будет качество отличаться? Что есть для вас качество?
Я о том, что если выставить в разных программах одинаковые ключи x265, то в теории результат должен быть одинаковый.
Аватар Студень
  Студень  
Plushko писал(а):
Объясните несведущему, если выставлять нужные параметры кодирования, то качество как-то отличаться будет?
Чаво сказал? какие параметры нужные? от чего будет качество отличаться? Что есть для вас качество?
Аватар не указан
  Plushko  
MakSIMus писал(а):
XviD4PSP 8.0.50 я не считаю это недоразумение за программу.
Объясните несведущему, если выставлять нужные параметры кодирования, то качество как-то отличаться будет?
Аватар MakSIMus
  MakSIMus  
Plushko писал(а):
XviD4PSP 8.0.50 научился с HDR работатьhttps://winnydows.com/ru/%d0%b3%d0%be%d1%82%d0%be%d0%b2%d0%b0-xvid4psp-daily/
XviD4PSP 8.0.50 я не считаю это недоразумение за программу.
Аватар не указан
  Plushko  
MakSIMus писал(а):
HDR пока переводить в SDR не научился.
XviD4PSP 8.0.50 научился с HDR работатьhttps://winnydows.com/ru/%d0%b3%d0%be%d1%82%d0%be%d0%b2%d0%b0-xvid4psp-daily/
Аватар MakSIMus
  MakSIMus  
OldGamer писал(а):
а почему не то? Исходник хвалят по качеству картинки.
HDR пока переводить в SDR не научился.
Аватар OldGamer
  OldGamer  
MakSIMus писал(а):
Так то 4K HDR. Вообще не то пальто.
а почему не то? Исходник хвалят по качеству картинки.
Аватар MakSIMus
  MakSIMus  
Plushko писал(а):
Попробуйте на трекерах их поискать http://kinozal.tv/details.php?id=1590209
Так то 4K HDR. Вообще не то пальто.
Аватар не указан
  Plushko  
MakSIMus писал(а):
Что-то я не нашел там кнопочек типа скачать.
Попробуйте на трекерах их поискать http://kinozal.tv/details.php?id=1590209
Аватар MakSIMus
  MakSIMus  
Plushko писал(а):
Много где лежит https://www.blu-ray.com/movies/Jumanji-Blu-ray/190373/
Что-то я не нашел там кнопочек типа скачать.
Аватар не указан
  Plushko  (Отредактировал Plushko)    
MakSIMus писал(а):
А разве такая версия существует?
Много где лежит https://www.blu-ray.com/movies/Jumanji-4K-Blu-ray/190697/
Аватар MakSIMus
  MakSIMus  (Отредактировал MakSIMus)    
Plushko писал(а):
Жаль, что не реставрированная версия.
А разве такая версия существует?
Аватар не указан
  Plushko  
Жаль, что не реставрированная версия.